<?xml version="1.0" standalone="no"?>
<!DOCTYPE svg PUBLIC "-//W3C//DTD SVG 1.1//EN" "http://www.w3.org/Graphics/SVG/1.1/DTD/svg11.dtd" >
<svg xmlns="http://www.w3.org/2000/svg">
<metadata>Generated by IcoMoon</metadata>
<defs>
<font id="DevIconFont" horiz-adv-x="1024">
<font-face units-per-em="1024" ascent="960" descent="-64" />
<missing-glyph horiz-adv-x="1024" />
<glyph unicode="&#x20;" horiz-adv-x="512" d="" />
<glyph unicode="&#xe900;" glyph-name="fi-ab-testing" d="M231.936 655.36c0-14.138-11.462-25.6-25.6-25.6s-25.6 11.462-25.6 25.6c0 14.138 11.462 25.6 25.6 25.6s25.6-11.462 25.6-25.6zM303.616 655.36c0-14.138-11.462-25.6-25.6-25.6s-25.6 11.462-25.6 25.6c0 14.138 11.462 25.6 25.6 25.6s25.6-11.462 25.6-25.6zM375.296 655.36c0-14.138-11.462-25.6-25.6-25.6s-25.6 11.462-25.6 25.6c0 14.138 11.462 25.6 25.6 25.6s25.6-11.462 25.6-25.6zM443.085 366.080l-67.891 151.040c-1.867 4.275-4.863 7.765-8.614 10.186-3.646 2.2-7.941 3.469-12.531 3.469s-8.885-1.269-12.551-3.476c-3.929-2.318-7.079-5.831-8.948-10.038l-67.844-151.18c-1.386-2.649-2.215-5.78-2.253-9.101 0-0.020 0-0.030 0-0.039 0-5.958 2.65-11.296 6.835-14.902 3.832-3.392 8.869-5.45 14.385-5.45 0.064 0 0.127 0 0.191 0.001 0.039 0 0.096-0.001 0.153-0.001 8.543 0 15.865 5.231 18.936 12.665l14.488 31.778h74.138l13.619-30.72c3.070-7.679 10.447-13.006 19.067-13.006 0.065 0 0.129 0 0.194 0.001 0.029 0 0.076 0 0.122 0 5.45 0 10.428 2.018 14.229 5.347 4.184 3.57 6.836 8.879 6.836 14.808 0 0.043 0 0.085 0 0.128 0.001 0.048 0.001 0.113 0.001 0.178 0 3.248-0.756 6.32-2.102 9.049zM334.541 420.966l19.354 44.032 19.456-44.032zM735.027 428.851v0c-2.371 3.114-4.995 5.836-7.903 8.227 8.972 9.019 14.58 21.442 14.58 35.175 0 0.51-0.008 1.018-0.023 1.523 0.035 0.606 0.053 1.403 0.053 2.205 0 15.834-7.29 29.966-18.697 39.222-12.176 8.893-27.322 14.184-43.704 14.184-1.229 0-2.451-0.030-3.665-0.089l-57.582 0.007c-0.148 0.004-0.322 0.006-0.496 0.006-5.799 0-11.070-2.263-14.977-5.955-3.91-3.728-6.348-8.991-6.348-14.823 0-0.221 0.004-0.442 0.010-0.662l-0.001-148.448c-0.004-0.159-0.007-0.347-0.007-0.535 0-5.881 2.478-11.182 6.448-14.917 3.907-3.691 9.178-5.955 14.977-5.955 0.174 0 0.348 0.002 0.522 0.006h59.878c1.327-0.084 2.878-0.131 4.44-0.131 16.743 0 32.21 5.467 44.711 14.714 11.446 9.56 18.807 24.072 18.807 40.302 0 0.937-0.025 1.868-0.073 2.793 0.023 0.381 0.033 0.982 0.033 1.584 0 11.865-3.851 22.831-10.372 31.716zM694.17 459.571c-5.177-3.221-11.461-5.13-18.191-5.13-0.986 0-1.962 0.041-2.927 0.121l-33.768-0.008v34.406h33.28c26.112 0 26.112-10.854 26.112-16.589 0.059-0.494 0.093-1.065 0.093-1.645 0-4.47-2.017-8.469-5.191-11.137zM639.283 414.618h36.557c24.576 0 26.624-10.24 26.624-19.046s-3.584-12.39-4.71-13.312c-5.225-3.134-11.53-4.988-18.267-4.988-1.248 0-2.482 0.064-3.697 0.188l-36.711-0.013zM484.454 308.736c-13.112 0.012-23.736 10.643-23.736 23.757 0 2.788 0.48 5.463 1.362 7.949l66.816 192.346c2.515 10.628 11.922 18.415 23.148 18.415 13.121 0 23.757-10.636 23.757-23.757 0-3.756-0.872-7.308-2.423-10.465l-66.498-191.86c-3.319-9.371-12.101-15.965-22.424-15.974zM864.051 193.638h-704.102v508.723h704.102zM915.251 794.419h-806.502c-22.622 0-40.96-18.338-40.96-40.96v-611.021c0-22.622 18.338-40.96 40.96-40.96h806.502c22.622 0 40.96 18.338 40.96 40.96v611.123c0 22.622-18.338 40.96-40.96 40.96z" />
<glyph unicode="&#xe901;" glyph-name="fi-academy-hat" d="M928.051 566.17l-409.6 167.526c-1.907 0.804-4.125 1.272-6.451 1.272s-4.544-0.467-6.563-1.313l-409.488-167.485c-6.278-2.626-10.609-8.717-10.609-15.821s4.331-13.195 10.497-15.779l176.753-72.234c-0.569-1.481-0.937-3.193-1.023-4.98l-0.001-93.119c0-108.954 198.042-147.354 240.538-147.354 31.437 0 147.763 20.992 206.336 76.083v-114.893c0.015-9.433 7.665-17.075 17.101-17.075 6.181 0 11.596 3.279 14.601 8.193l41.003 68.785 40.96-68.71c3.047-4.989 8.462-8.268 14.643-8.268 9.435 0 17.086 7.641 17.101 17.073v316.52c-0.027 4.652-1.941 8.852-5.015 11.876l68.913 28.162c6.278 2.626 10.609 8.717 10.609 15.821s-4.331 13.195-10.497 15.779zM512 250.982c-39.424 0-206.336 37.786-206.336 113.254v84.582l199.885-81.92c1.908-0.799 4.125-1.264 6.451-1.264s4.543 0.464 6.564 1.305l197.519 81.059 2.253-1.126v-82.534c0-75.469-166.912-113.254-206.336-113.254zM830.054 239.821l-24.166 40.038c-3.047 4.989-8.462 8.268-14.643 8.268s-11.596-3.279-14.601-8.193l-24.209-40.318v217.702c-0.052 2.152-0.499 4.186-1.27 6.051l-0.676 1.424c-0.85 1.406-1.833 2.618-2.961 3.678l-0.009 1.032c-1.206 1.162-2.589 2.153-4.102 2.925l-99.527 49.709 186.47-40.96zM805.376 521.421l-289.69 64.205c-1.078 0.242-2.315 0.38-3.586 0.38-9.445 0-17.101-7.656-17.101-17.101 0-6.604 3.744-12.334 9.225-15.183l171.615-85.242-163.84-67.174-364.544 149.094 364.544 149.094 364.544-149.094z" />
<glyph unicode="&#xe902;" glyph-name="fi-alert" d="M933.581 126.771v0l-1.741 2.458c-0.773 1.488-1.521 2.727-2.335 3.917l-385.453 668.442c-6.305 11.522-18.343 19.205-32.176 19.205-14.953 0-27.81-8.978-33.473-21.838l-0.092-0.234-382.976-663.347c-5.205-6.227-8.373-14.312-8.397-23.137 0-20.308 16.459-36.767 36.762-36.767h776.192c0.011 0 0.024 0 0.038 0 20.246 0 36.659 16.413 36.659 36.659 0 5.257-1.107 10.256-3.099 14.776zM512 144.691c-0.183-0.002-0.398-0.004-0.614-0.004-29.034 0-52.577 23.509-52.633 52.529-0.033 0.7-0.051 1.514-0.051 2.333 0 29.238 23.702 52.941 52.941 52.941s52.941-23.702 52.941-52.941c0-0.819-0.019-1.633-0.055-2.443 0.004 0.084 0.004 0.048 0.004 0.012 0-28.956-23.473-52.429-52.429-52.429-0.036 0-0.072 0-0.108 0zM564.531 609.28v-289.792c0-11.82-9.582-21.402-21.402-21.402h-61.85c-0.061-0.001-0.133-0.001-0.205-0.001-11.841 0-21.446 9.57-21.504 21.397v288.978s0 0.512 0 0.819c0 0.016 0 0.036 0 0.055 0 11.223 8.68 20.418 19.693 21.24l0.071 0.004h64.41c0.036 0 0.079 0 0.122 0 11.496 0 20.875-9.064 21.38-20.435l0.002-0.046v-0.512z" />
<glyph unicode="&#xe903;" glyph-name="fi-align-center" d="M192.205 91.034h639.59c19.285 0 34.918 15.634 34.918 34.918v32.154c0 19.285-15.634 34.918-34.918 34.918h-639.59c-19.285 0-34.918-15.634-34.918-34.918v-32.154c0-19.285 15.634-34.918 34.918-34.918zM243.507 362.086v0-32.154c0-19.285 15.634-34.918 34.918-34.918h467.251c19.285 0 34.918 15.634 34.918 34.918v32.154c-0.116 19.197-15.705 34.714-34.918 34.714 0 0 0 0-0.001 0h-467.354c-19.285 0-34.918-15.634-34.918-34.918zM227.226 703.078h569.651c19.285 0 34.918 15.634 34.918 34.918v32.154c0 19.285-15.634 34.918-34.918 34.918h-569.651c-19.285 0-34.918-15.634-34.918-34.918v0-32.154c0-19.285 15.634-34.918 34.918-34.918zM278.323 533.914c0.116-19.197 15.705-34.714 34.918-34.714 0 0 0 0 0.001 0h397.517c19.285 0 34.918 15.634 34.918 34.918v31.949c0 19.285-15.634 34.918-34.918 34.918h-397.517c-19.285 0-34.918-15.634-34.918-34.918v0-32.154z" />
<glyph unicode="&#xe904;" glyph-name="fi-align-justify" d="M831.795 802.406h-639.59c-19.285 0-34.918-15.634-34.918-34.918v-32.154c0-19.285 15.634-34.918 34.918-34.918h639.59c19.285 0 34.918 15.634 34.918 34.918v32.154c0 19.285-15.634 34.918-34.918 34.918zM831.795 600.166h-639.59c-19.285 0-34.918-15.634-34.918-34.918v-32.154c0-19.285 15.634-34.918 34.918-34.918h639.59c19.285 0 34.918 15.634 34.918 34.918v32.154c0 19.285-15.634 34.918-34.918 34.918zM831.795 397.824h-639.59c-19.285 0-34.918-15.634-34.918-34.918v-32.154c0-19.285 15.634-34.918 34.918-34.918h639.59c19.285 0 34.918 15.634 34.918 34.918v32.154c0 19.285-15.634 34.918-34.918 34.918zM831.795 195.584h-639.59c-19.285 0-34.918-15.634-34.918-34.918v-32.154c0-19.285 15.634-34.918 34.918-34.918h639.59c19.285 0 34.918 15.634 34.918 34.918v32.154c0 19.285-15.634 34.918-34.918 34.918z" />
<glyph unicode="&#xe905;" glyph-name="fi-align-left" d="M831.795 804.966h-639.59c-19.285 0-34.918-15.634-34.918-34.918v-32.154c0-19.285 15.634-34.918 34.918-34.918h639.59c19.285 0 34.918 15.634 34.918 34.918v32.154c0 19.285-15.634 34.918-34.918 34.918zM192.205 499.2h467.251c19.285 0 34.918 15.634 34.918 34.918v32.051c0 19.285-15.634 34.918-34.918 34.918h-467.251c-19.285 0-34.918-15.634-34.918-34.918v-32.154c0.058-19.241 15.669-34.816 34.918-34.816 0 0 0 0 0 0zM761.856 193.024h-569.651c-19.285 0-34.918-15.634-34.918-34.918v-32.154c0-19.285 15.634-34.918 34.918-34.918h569.651c19.285 0 34.918 15.634 34.918 34.918v0 32.154c0 19.285-15.634 34.918-34.918 34.918zM192.205 295.014h397.517c19.285 0 34.918 15.634 34.918 34.918v0 32.154c-0.116 19.197-15.705 34.714-34.918 34.714 0 0 0 0-0.001 0h-397.517c-19.285 0-34.918-15.634-34.918-34.918v-32.154c0-19.285 15.634-34.918 34.918-34.918z" />
<glyph unicode="&#xe906;" glyph-name="fi-align-right" d="M831.795 804.966h-639.59c-19.285 0-34.918-15.634-34.918-34.918v-32.154c0-19.285 15.634-34.918 34.918-34.918h639.59c19.285 0 34.918 15.634 34.918 34.918v32.154c0 19.285-15.634 34.918-34.918 34.918zM831.795 600.986h-467.251c-19.285 0-34.918-15.634-34.918-34.918v-32.154c0.116-19.197 15.705-34.714 34.918-34.714 0 0 0 0 0.001 0h467.251c19.285 0 34.918 15.634 34.918 34.918v31.949c0 19.285-15.634 34.918-34.918 34.918zM831.693 193.024h-569.754c-19.285 0-34.918-15.634-34.918-34.918v-32.154c0-19.285 15.634-34.918 34.918-34.918h569.754c19.285 0 34.918 15.634 34.918 34.918v0 32.154c0 19.285-15.634 34.918-34.918 34.918zM866.714 362.086c-0.116 19.197-15.705 34.714-34.918 34.714 0 0 0 0-0.001 0h-397.517c0 0 0 0-0.001 0-19.213 0-34.802-15.517-34.918-34.702v-32.165c0-19.285 15.634-34.918 34.918-34.918h397.517c19.285 0 34.918 15.634 34.918 34.918v0 32.154z" />
<glyph unicode="&#xe907;" glyph-name="fi-animation-video" d="M885.76 765.44h-747.52c-33.932 0-61.44-27.508-61.44-61.44v-512c0-33.932 27.508-61.44 61.44-61.44h747.52c33.932 0 61.44 27.508 61.44 61.44v512c0 33.932-27.508 61.44-61.44 61.44zM250.88 202.24c0-11.311-9.169-20.48-20.48-20.48h-81.92c-11.311 0-20.48 9.169-20.48 20.48v51.2c0 11.311 9.169 20.48 20.48 20.48h81.92c11.311 0 20.48-9.169 20.48-20.48zM250.88 642.56c0-11.311-9.169-20.48-20.48-20.48h-81.92c-11.311 0-20.48 9.169-20.48 20.48v51.2c0 11.311 9.169 20.48 20.48 20.48h81.92c11.311 0 20.48-9.169 20.48-20.48zM465.92 202.24c0-11.311-9.169-20.48-20.48-20.48h-81.92c-11.311 0-20.48 9.169-20.48 20.48v51.2c0 11.311 9.169 20.48 20.48 20.48h81.92c11.311 0 20.48-9.169 20.48-20.48zM465.92 642.56c0-11.311-9.169-20.48-20.48-20.48h-81.92c-11.311 0-20.48 9.169-20.48 20.48v51.2c0 11.311 9.169 20.48 20.48 20.48h81.92c11.311 0 20.48-9.169 20.48-20.48zM680.96 202.24c0-11.311-9.169-20.48-20.48-20.48h-81.92c-11.311 0-20.48 9.169-20.48 20.48v51.2c0 11.311 9.169 20.48 20.48 20.48h81.92c11.311 0 20.48-9.169 20.48-20.48zM680.96 642.56c0-11.311-9.169-20.48-20.48-20.48h-81.92c-11.311 0-20.48 9.169-20.48 20.48v51.2c0 11.311 9.169 20.48 20.48 20.48h81.92c11.311 0 20.48-9.169 20.48-20.48zM896 202.24c0-11.311-9.169-20.48-20.48-20.48h-81.92c-11.311 0-20.48 9.169-20.48 20.48v51.2c0 11.311 9.169 20.48 20.48 20.48h81.92c11.311 0 20.48-9.169 20.48-20.48zM896 642.56c0-11.311-9.169-20.48-20.48-20.48h-81.92c-11.311 0-20.48 9.169-20.48 20.48v51.2c0 11.311 9.169 20.48 20.48 20.48h81.92c11.311 0 20.48-9.169 20.48-20.48z" />
<glyph unicode="&#xe908;" glyph-name="fi-annotate" d="M844.698 259.174v377.651c33.748 18.369 56.268 53.569 56.268 94.029 0 58.929-47.772 106.701-106.701 106.701-36.708 0-69.086-18.536-88.285-46.759l-387.72-0.371c-19.438 28.594-51.816 47.13-88.524 47.13-58.929 0-106.701-47.772-106.701-106.701 0-40.46 22.52-75.66 55.709-93.751l0.559-377.93c-33.536-18.429-55.886-53.516-55.886-93.824 0-58.929 47.772-106.701 106.701-106.701 44.78 0 83.117 27.585 98.945 66.689l365.619 0.716c16.135-39.641 54.364-67.077 99.001-67.077 58.873 0 106.598 47.726 106.598 106.598 0 40.17-22.219 75.15-55.037 93.321zM281.498 259.174v377.549c21.097 11.677 37.504 29.636 46.938 51.328l366.86 0.692c9.703-22.383 26.109-40.342 46.658-51.74l0.548-377.725c-14.443-7.895-26.457-18.502-35.73-31.233l-389.332-0.306c-9.38 13-21.254 23.598-34.989 31.261z" />
<glyph unicode="&#xe909;" glyph-name="fi-archive" d="M865.28 626.995h-706.56v-502.784c0-16.401 13.295-29.696 29.696-29.696h647.168c16.401 0 29.696 13.295 29.696 29.696zM655.974 427.52h-287.949v74.547h287.949zM179.302 801.485c-19.816-0.173-35.828-16.22-35.942-36.034v-86.437h737.28v86.426c0 0.061 0.001 0.134 0.001 0.206 0 19.912-16.055 36.075-35.926 36.248z" />
<glyph unicode="&#xe90a;" glyph-name="fi-arrow-down-carats" d="M813.158 598.426l-31.642 31.642c-8.114 8.103-19.318 13.115-31.693 13.115s-23.578-5.011-31.693-13.115l-206.131-206.131-206.131 206.234c-8.103 8.128-19.311 13.157-31.693 13.157s-23.59-5.029-31.692-13.156l-31.643-31.643c-8.128-8.103-13.157-19.311-13.157-31.693s5.029-23.59 13.156-31.692l269.211-269.313c8.218-8.085 19.501-13.076 31.949-13.076s23.731 4.992 31.955 13.082l269.203 269.306c8.103 8.114 13.115 19.318 13.115 31.693s-5.011 23.578-13.115 31.693z" />
<glyph unicode="&#xe90b;" glyph-name="fi-arrow-down" d="M825.856 454.349l-48.538 48.538c-3.056 3.047-7.273 4.931-11.93 4.931s-8.874-1.884-11.93-4.931l-190.259-190.464v446.157c0 7.748-6.281 14.029-14.029 14.029h-74.24c-0.030 0-0.066 0-0.102 0-7.748 0-14.029-6.281-14.029-14.029 0 0 0 0 0 0v-446.157l-190.259 190.362c-3.056 3.047-7.273 4.931-11.93 4.931s-8.874-1.884-11.93-4.931l-48.537-48.537c-3.078-3.061-4.982-7.298-4.982-11.981s1.905-8.92 4.982-11.98l302.183-302.081c2.985-2.993 7.113-4.845 11.674-4.845s8.689 1.852 11.673 4.844l302.183 302.183c3.078 3.061 4.982 7.298 4.982 11.981s-1.905 8.92-4.982 11.98z" />
<glyph unicode="&#xe90c;" glyph-name="fi-arrow-left-carats" d="M662.426 146.739l31.642 31.642c8.103 8.114 13.115 19.318 13.115 31.693s-5.011 23.578-13.115 31.693l-206.131 206.233 206.234 206.131c8.103 8.114 13.115 19.318 13.115 31.693s-5.011 23.578-13.115 31.693l-31.641 31.641c-8.103 8.128-19.311 13.157-31.693 13.157s-23.59-5.029-31.692-13.156l-269.313-269.211c-8.085-8.218-13.076-19.501-13.076-31.949s4.992-23.731 13.082-31.955l269.306-269.306c8.114-8.103 19.318-13.115 31.693-13.115s23.578 5.011 31.693 13.115z" />
<glyph unicode="&#xe90d;" glyph-name="fi-arrow-left" d="M822.579 499.2h-446.157l190.362 190.259c3.047 3.056 4.931 7.273 4.931 11.93s-1.884 8.874-4.931 11.93l-48.537 48.537c-3.056 3.047-7.273 4.931-11.93 4.931s-8.874-1.884-11.93-4.931l-302.182-302.182c-2.993-2.985-4.845-7.113-4.845-11.674s1.852-8.689 4.844-11.673l302.183-302.183c3.056-3.047 7.273-4.931 11.93-4.931s8.874 1.884 11.93 4.931l48.537 48.537c3.047 3.056 4.931 7.273 4.931 11.93s-1.884 8.874-4.931 11.93l-190.361 190.259h446.157c7.748 0 14.029 6.281 14.029 14.029v74.24c0 0.030 0 0.066 0 0.102 0 7.748-6.281 14.029-14.029 14.029 0 0 0 0 0 0z" />
<glyph unicode="&#xe90e;" glyph-name="fi-arrow-location" d="M453.222 100.966l-293.376 687.002c-0.381 0.84-0.603 1.822-0.603 2.856 0 3.902 3.163 7.066 7.066 7.066 1.034 0 2.015-0.222 2.9-0.621l692.589-296.942c1.742-0.684 2.954-2.351 2.954-4.301s-1.211-3.617-2.922-4.29l-251.73-77.22c-32.505-10.18-57.7-35.004-68.192-66.543l-80.084-246.494c-0.684-1.742-2.351-2.954-4.301-2.954s-3.617 1.211-4.29 2.922z" />
<glyph unicode="&#xe90f;" glyph-name="fi-arrow-pointer-cursor" d="M437.35 314.88l-113.971-85.094c-2.565-1.934-5.806-3.098-9.319-3.098-8.569 0-15.521 6.925-15.565 15.484v531.46c0 0.001 0 0.003 0 0.004 0 8.596 6.969 15.565 15.565 15.565 4.325 0 8.237-1.764 11.058-4.611l395.777-399.361c2.787-2.812 4.51-6.683 4.51-10.957 0-8.596-6.969-15.565-15.565-15.565-0.001 0-0.003 0-0.004 0h-138.957l86.323-184.32c0.878-1.889 1.391-4.1 1.391-6.431 0-6.161-3.58-11.486-8.773-14.009l-98.192-46.121c-1.889-0.878-4.1-1.391-6.431-1.391-6.161 0-11.486 3.58-14.009 8.773z" />
<glyph unicode="&#xe910;" glyph-name="fi-arrow-return-back" d="M898.662 494.182h-660.48l172.134 172.134c2.77 2.763 4.483 6.583 4.483 10.803s-1.714 8.041-4.483 10.803l-43.828 43.828c-2.763 2.77-6.583 4.483-10.803 4.483s-8.041-1.714-10.803-4.483l-218.42-218.317-54.784-55.194c-2.513-2.669-4.057-6.274-4.057-10.24s1.544-7.571 4.064-10.248l54.879-54.879 218.214-218.726c2.763-2.77 6.583-4.483 10.803-4.483s8.041 1.714 10.803 4.483l43.828 43.828c2.77 2.763 4.483 6.583 4.483 10.803s-1.714 8.041-4.483 10.803l-172.032 172.237h611.738c8.070-0.169 14.547-6.751 14.547-14.845 0-0.145-0.002-0.29-0.006-0.434v-121.528c0-3.072 5.632-5.53 12.698-5.53h66.97c6.963 0 12.698 2.458 12.698 5.53v171.008c0 32.123-26.041 58.163-58.163 58.163z" />
<glyph unicode="&#xe911;" glyph-name="fi-arrow-right-carats" d="M361.574 749.261l-31.642-31.642c-8.128-8.103-13.157-19.311-13.157-31.693s5.029-23.59 13.156-31.692l206.132-206.235-206.234-206.131c-8.128-8.103-13.157-19.311-13.157-31.693s5.029-23.59 13.156-31.692l31.643-31.643c8.103-8.128 19.311-13.157 31.693-13.157s23.59 5.029 31.692 13.156l269.313 269.211c8.085 8.218 13.076 19.501 13.076 31.949s-4.992 23.731-13.082 31.955l-269.306 269.306c-8.114 8.103-19.318 13.115-31.693 13.115s-23.578-5.011-31.693-13.115z" />
<glyph unicode="&#xe912;" glyph-name="fi-arrow-right" d="M831.795 459.674l-302.182 302.182c-3.056 3.047-7.273 4.931-11.93 4.931s-8.874-1.884-11.93-4.931l-48.537-48.537c-3.047-3.056-4.931-7.273-4.931-11.93s1.884-8.874 4.931-11.93l190.361-190.259h-446.157c-7.748 0-14.029-6.281-14.029-14.029v-74.138c-0.001-0.061-0.001-0.133-0.001-0.205 0-7.748 6.281-14.029 14.029-14.029 0.001 0 0.001 0 0.002 0h446.157l-190.362-190.259c-3.047-3.056-4.931-7.273-4.931-11.93s1.884-8.874 4.931-11.93l48.537-48.537c3.056-3.047 7.273-4.931 11.93-4.931s8.874 1.884 11.93 4.931l302.182 302.182c2.993 2.985 4.845 7.113 4.845 11.674s-1.852 8.689-4.844 11.673z" />
<glyph unicode="&#xe913;" glyph-name="fi-arrow-up-carats" d="M210.842 297.574l31.642-31.642c8.103-8.128 19.311-13.157 31.693-13.157s23.59 5.029 31.692 13.156l206.132 206.132 206.131-206.234c8.114-8.103 19.318-13.115 31.693-13.115s23.578 5.011 31.693 13.115l31.641 31.641c8.128 8.103 13.157 19.311 13.157 31.693s-5.029 23.59-13.156 31.692l-269.211 269.313c-8.218 8.085-19.501 13.076-31.949 13.076s-23.731-4.992-31.955-13.082l-269.203-269.306c-8.103-8.114-13.115-19.318-13.115-31.693s5.011-23.578 13.115-31.693z" />
<glyph unicode="&#xe914;" glyph-name="fi-arrow-up" d="M825.856 465.613l-302.182 302.182c-2.985 2.993-7.113 4.845-11.674 4.845s-8.689-1.852-11.673-4.844l-302.183-302.183c-3.078-3.061-4.982-7.298-4.982-11.981s1.905-8.92 4.982-11.98l48.538-48.538c3.056-3.047 7.273-4.931 11.93-4.931s8.874 1.884 11.93 4.931l190.259 190.464v-446.157c0-7.748 6.281-14.029 14.029-14.029h74.138c0.061-0.001 0.133-0.001 0.205-0.001 7.748 0 14.029 6.281 14.029 14.029 0 0.001 0 0.001 0 0.002v446.157l190.259-190.464c3.056-3.047 7.273-4.931 11.93-4.931s8.874 1.884 11.93 4.931l48.537 48.537c3.047 3.056 4.931 7.273 4.931 11.93s-1.884 8.874-4.931 11.93z" />
<glyph unicode="&#xe915;" glyph-name="fi-arrows-compress" d="M401.101 54.477l52.224 315.085c0.149 0.869 0.235 1.869 0.235 2.89 0 4.95-2.007 9.432-5.252 12.675v0c-3.245 3.254-7.732 5.267-12.689 5.267-1.052 0-2.083-0.091-3.085-0.264l-314.056-53.028c-8.666-1.359-15.217-8.772-15.217-17.715 0-5.117 2.144-9.732 5.584-12.998l61.448-61.447-165.069-164.659c-3.259-3.245-5.275-7.736-5.275-12.698s2.016-9.452 5.274-12.697l113.665-113.665c3.245-3.259 7.736-5.275 12.698-5.275s9.452 2.016 12.697 5.274l164.967 164.967 61.44-61.44c3.267-3.401 7.852-5.514 12.931-5.514 9.134 0 16.671 6.833 17.78 15.666zM622.899 841.523l-52.224-315.085c-0.149-0.869-0.235-1.869-0.235-2.89 0-4.95 2.007-9.432 5.252-12.675v0c3.245-3.254 7.732-5.267 12.689-5.267 1.052 0 2.083 0.091 3.085 0.264l314.159 53.13c8.666 1.359 15.217 8.772 15.217 17.715 0 5.117-2.144 9.732-5.584 12.998l-61.448 61.447 164.966 164.557c3.259 3.245 5.275 7.736 5.275 12.698s-2.016 9.452-5.274 12.697l-113.665 113.665c-3.245 3.259-7.736 5.275-12.698 5.275s-9.452-2.016-12.697-5.274l-164.967-164.967-61.44 61.44c-3.267 3.401-7.852 5.514-12.931 5.514-9.134 0-16.671-6.833-17.78-15.666z" />
<glyph unicode="&#xe916;" glyph-name="fi-arrows-expand" d="M52.531 271.974l-52.531-315.494c-0.149-0.869-0.235-1.869-0.235-2.89 0-4.95 2.007-9.432 5.252-12.675v0c3.233-3.184 7.673-5.15 12.572-5.15 1.021 0 2.022 0.085 2.996 0.249l314.058 53.131c8.666 1.359 15.217 8.772 15.217 17.715 0 5.117-2.144 9.732-5.584 12.998l-61.448 61.447 165.581 164.864c3.259 3.245 5.275 7.736 5.275 12.698s-2.016 9.452-5.274 12.697l-113.665 113.665c-3.245 3.259-7.736 5.275-12.698 5.275s-9.452-2.016-12.697-5.274l-164.967-164.967-61.44 61.44c-3.267 3.401-7.852 5.514-12.931 5.514-9.134 0-16.671-6.833-17.78-15.666zM971.469 624.026l52.531 315.494c0.107 0.735 0.168 1.583 0.168 2.446 0 5.018-2.063 9.555-5.387 12.808l-0.003 0.003c-3.272 3.324-7.819 5.384-12.848 5.384-0.85 0-1.685-0.059-2.504-0.173l-314.581-53.34c-8.708-1.32-15.305-8.754-15.305-17.728 0-5.11 2.139-9.72 5.57-12.985l61.447-61.447-164.864-164.659c-3.259-3.245-5.275-7.736-5.275-12.698s2.016-9.452 5.274-12.697l113.665-113.665c3.245-3.259 7.736-5.275 12.698-5.275s9.452 2.016 12.697 5.274l164.865 164.967 61.44-61.44c3.267-3.401 7.852-5.514 12.931-5.514 9.134 0 16.671 6.833 17.78 15.666z" />
<glyph unicode="&#xe917;" glyph-name="fi-arrows-in" d="M368.64 44.851l48.026 289.485c0.14 0.806 0.219 1.733 0.219 2.68 0 4.552-1.845 8.673-4.827 11.656v0c-2.985 2.991-7.112 4.842-11.671 4.842-0.978 0-1.936-0.085-2.866-0.248l-288.669-48.626c-7.864-1.348-13.774-8.115-13.774-16.262 0-4.57 1.86-8.707 4.864-11.693l56.423-56.423-151.552-151.654c-2.993-2.985-4.845-7.113-4.845-11.674s1.852-8.689 4.844-11.673l104.448-104.448c2.985-2.993 7.113-4.845 11.674-4.845s8.689 1.852 11.673 4.844l151.552 151.552 56.422-56.525c2.994-3.050 7.16-4.94 11.767-4.94 8.21 0 15.019 6.001 16.278 13.857zM655.36 851.046l-47.923-289.485c-0.14-0.806-0.219-1.733-0.219-2.68 0-4.552 1.845-8.673 4.827-11.656v0c2.985-2.991 7.112-4.842 11.671-4.842 0.978 0 1.936 0.085 2.866 0.248l288.567 48.728c7.864 1.348 13.774 8.115 13.774 16.262 0 4.57-1.86 8.707-4.864 11.693l-56.423 56.423 151.552 151.142c2.993 2.985 4.845 7.113 4.845 11.674s-1.852 8.689-4.844 11.673l-104.448 104.96c-3.008 3.149-7.24 5.107-11.93 5.107s-8.922-1.958-11.924-5.101l-151.558-151.558-56.013 56.422c-2.986 2.996-7.116 4.85-11.679 4.85-8.178 0-14.966-5.955-16.263-13.765zM915.046 304.64l-289.485 47.923c-0.806 0.14-1.733 0.219-2.68 0.219-4.552 0-8.673-1.845-11.656-4.827v0c-2.991-2.985-4.842-7.112-4.842-11.671 0-0.978 0.085-1.936 0.248-2.866l48.728-288.567c1.348-7.864 8.115-13.774 16.262-13.774 4.57 0 8.707 1.86 11.693 4.864l56.423 56.423 151.552-151.552c2.985-2.993 7.113-4.845 11.674-4.845s8.689 1.852 11.673 4.844l104.448 104.448c2.993 2.985 4.845 7.113 4.845 11.674s-1.852 8.689-4.844 11.673l-151.552 151.552 56.525 56.422c3.050 2.994 4.94 7.16 4.94 11.767 0 8.21-6.001 15.019-13.857 16.278zM108.851 591.36l289.485-48.026c0.806-0.14 1.733-0.219 2.68-0.219 4.552 0 8.673 1.845 11.656 4.827v0c2.991 2.985 4.842 7.112 4.842 11.671 0 0.978-0.085 1.936-0.248 2.866l-48.626 288.669c-1.348 7.864-8.115 13.774-16.262 13.774-4.57 0-8.707-1.86-11.693-4.864l-56.423-56.423-151.142 151.552c-2.985 2.993-7.113 4.845-11.674 4.845s-8.689-1.852-11.673-4.844l-104.96-104.448c-3.149-3.008-5.107-7.24-5.107-11.93s1.958-8.922 5.101-11.924l151.558-151.558-56.422-56.013c-3.005-2.987-4.865-7.123-4.865-11.694 0-8.147 5.909-14.914 13.676-16.248z" />
<glyph unicode="&#xe918;" glyph-name="fi-arrows-out" d="M48.23 247.398l-48.23-289.587c-0.14-0.806-0.219-1.733-0.219-2.68 0-4.552 1.845-8.673 4.827-11.656v0c2.985-2.991 7.112-4.842 11.671-4.842 0.978 0 1.936 0.085 2.866 0.248l288.874 48.318c7.864 1.348 13.774 8.115 13.774 16.262 0 4.57-1.86 8.707-4.864 11.693l-56.423 56.423 151.552 151.552c2.993 2.985 4.845 7.113 4.845 11.674s-1.852 8.689-4.844 11.673l-104.858 104.96c-2.985 2.993-7.113 4.845-11.674 4.845s-8.689-1.852-11.673-4.844l-150.733-151.552-56.934 56.422c-2.986 2.996-7.116 4.85-11.679 4.85-8.178 0-14.966-5.955-16.263-13.765zM975.77 654.029l48.23 289.485c0.14 0.806 0.219 1.733 0.219 2.68 0 4.552-1.845 8.673-4.827 11.656v0c-2.985 2.991-7.112 4.842-11.671 4.842-0.978 0-1.936-0.085-2.866-0.248l-288.874-48.83c-7.864-1.348-13.774-8.115-13.774-16.262 0-4.57 1.86-8.707 4.864-11.693l56.423-56.423-151.552-151.552c-2.993-2.985-4.845-7.113-4.845-11.674s1.852-8.689 4.844-11.673l104.858-103.936c2.985-2.993 7.113-4.845 11.674-4.845s8.689 1.852 11.673 4.844l150.733 151.040 56.422-56.525c2.986-2.996 7.116-4.85 11.679-4.85 8.178 0 14.966 5.955 16.263 13.765zM715.264-12.8l289.485-48.026c0.806-0.14 1.733-0.219 2.68-0.219 4.552 0 8.673 1.845 11.656 4.827v0c2.991 2.985 4.842 7.112 4.842 11.671 0 0.978-0.085 1.936-0.248 2.866l-48.728 288.669c-1.348 7.864-8.115 13.774-16.262 13.774-4.57 0-8.707-1.86-11.693-4.864l-56.116-56.833-151.859 151.654c-2.985 2.993-7.113 4.845-11.674 4.845s-8.689-1.852-11.673-4.844l-104.448-104.448c-2.993-2.985-4.845-7.113-4.845-11.674s1.852-8.689 4.844-11.673l151.552-151.552-56.218-56.525c-2.87-2.963-4.638-7.007-4.638-11.464 0-7.993 5.688-14.657 13.237-16.166zM308.736 914.432l-289.587 48.026c-0.806 0.14-1.733 0.219-2.68 0.219-4.552 0-8.673-1.845-11.656-4.827v0c-3.096-3.001-5.018-7.198-5.018-11.844 0-0.916 0.075-1.814 0.218-2.69l48.832-288.673c1.348-7.864 8.115-13.774 16.262-13.774 4.57 0 8.707 1.86 11.693 4.864l56.321 56.526 151.859-151.859c2.985-2.993 7.113-4.845 11.674-4.845s8.689 1.852 11.673 4.844l104.448 104.448c2.993 2.985 4.845 7.113 4.845 11.674s-1.852 8.689-4.844 11.673l-151.552 151.552 56.218 56.73c2.996 2.986 4.85 7.116 4.85 11.679 0 8.178-5.955 14.966-13.765 16.263z" />
<glyph unicode="&#xe919;" glyph-name="fi-asterisk" d="M844.39 344.883v0 0.614l-177.152 102.502 178.074 102.4c5.954 3.653 9.866 10.127 9.866 17.515 0 3.81-1.040 7.377-2.853 10.432l0.052 0.52-56.934 98.509c-3.656 5.942-10.123 9.845-17.502 9.845-3.649 0-7.076-0.955-10.043-2.628l0.102 0.053-178.381-102.912v206.336c0 11.311-9.169 20.48-20.48 20.48h-114.074c-11.311 0-20.48-9.169-20.48-20.48v0-206.029l-178.586 103.219c-2.847 1.595-6.248 2.534-9.868 2.534-7.572 0-14.183-4.109-17.728-10.218l-0.053-0.713-56.525-97.894c-1.594-2.846-2.532-6.246-2.532-9.864 0-7.362 3.884-13.816 9.715-17.426l0.088-0.051 179.302-103.629-174.080-100.659c-8.581-2.57-14.728-10.395-14.728-19.656 0-3.772 1.020-7.307 2.799-10.342l-0.052 0.097 58.47-101.274c3.783-4.542 9.441-7.412 15.769-7.412 3.812 0 7.381 1.042 10.438 2.856l-0.095-0.052v-0.614l177.869 102.4v-199.987c0-1.434 0-3.072 0-4.71 0-11.311 9.169-20.48 20.48-20.48h116.634c9.996 2 17.462 10.588 17.715 20.965l0.001 0.027v205.107l174.080-100.352c1.113-1.068 2.354-2.016 3.695-2.815 3.077-1.846 6.677-2.907 10.525-2.907 7.536 0 14.121 4.070 17.677 10.132l0.052 0.096 58.368 101.274c0.829 2.139 1.309 4.615 1.309 7.204 0 7.573-4.11 14.186-10.222 17.73z" />
<glyph unicode="&#xe91a;" glyph-name="fi-at-sign" d="M896 448c0 0.13 0 0.283 0 0.437 0 212.304-172.106 384.41-384.41 384.41s-384.41-172.106-384.41-384.41c0-212.304 172.106-384.41 384.41-384.41 69.152 0 134.039 18.26 190.103 50.22 4.396 1.321 8.801 7.26 8.801 14.227 0 6.301-3.602 11.761-8.86 14.433l-0.092 0.042-66.867 40.96c-2.752 2.355-6.354 3.788-10.291 3.788-2.475 0-4.817-0.566-6.905-1.577l0.095 0.041c-31.262-12.981-67.572-20.519-105.643-20.519-155.863 0-282.214 126.352-282.214 282.214s126.352 282.214 282.214 282.214c146.474 0 266.886-111.588 280.86-254.391 0.092-103.56-44.657-160.802-79.78-160.802-18.944 0-33.28 12.595-33.28 40.96 0.434 7.961 1.384 15.375 2.83 22.61l42.431 202.67c0.029 0.322 0.046 0.697 0.046 1.075s-0.017 0.753-0.049 1.123c0.003 7.474-6.094 13.571-13.616 13.571h-73.728c-6.64-0.144-12.082-5.092-12.996-11.5l-0.008-0.072-7.578-36.352c-18.944 34.202-57.651 60.314-112.64 60.314-105.062 0.102-203.878-99.84-203.878-220.57 0-87.347 52.224-151.245 139.571-151.245 48.64 0 98.202 27.955 129.741 71.68l0.922-5.427c6.246-34.202 100.762-77.619 154.829-77.619 78.336 0 170.189 52.838 170.189 204.083v0c0 5.734 0.512 11.469 0.512 17.306zM579.686 377.958c-19.866-27.955-52.224-59.494-99.942-59.494-45.978 0-73.83 32.461-73.83 79.258 0 65.741 51.2 130.56 122.88 130.56 0.367 0.006 0.801 0.010 1.235 0.010 31.629 0 58.909-18.624 71.471-45.503z" />
<glyph unicode="&#xe91b;" glyph-name="fi-audio-sound" d="M668.467 806.4h-4.301c-0.007 0-0.015 0-0.023 0-14.367 0-27.532-5.146-37.753-13.695l-210.442-175.336c-11.67-9.792-26.846-15.748-43.413-15.77h-215.045c-14.534 0-26.317-11.782-26.317-26.317v-254.566c0-0.001 0-0.001 0-0.002 0-14.426 11.608-26.142 25.993-26.315h215.056c16.572-0.022 31.748-5.977 43.523-15.855l210.737-175.325c10.128-8.473 23.293-13.619 37.661-13.619 0.008 0 0.016 0 0.024 0h4.3c8.483 0 15.36 6.877 15.36 15.36v686.080c0 8.483-6.877 15.36-15.36 15.36zM798.72 133.939c-16.952 0.019-30.686 13.766-30.686 30.72 0 5.244 1.314 10.181 3.631 14.5 38.627 73.052 59.926 168.591 59.926 268.738s-21.299 195.789-60.006 268.902c-2.081 4.032-3.301 8.801-3.301 13.854 0 16.966 13.754 30.72 30.72 30.72 11.488 0 21.504-6.306 26.774-15.646 43.395-82.073 67.254-187.75 67.254-297.83s-23.859-215.757-67.174-297.677c-5.276-9.762-15.434-16.282-27.116-16.282-0.007 0-0.014 0-0.022 0z" />
<glyph unicode="&#xe91c;" glyph-name="fi-automate" d="M826.675 668.058c0-105.779-38.707-290.202-128.41-457.421-27.532-52.201-53.38-95.121-81.272-136.551 164.057 53.574 279.132 200.204 279.132 373.712 0 82.478-26.003 158.882-70.257 221.462zM274.637 634.266c167.117 90.214 351.334 128.819 457.216 128.41-8.294 5.837-16.794 11.366-25.6 16.486-55.637 33.151-122.69 52.748-194.32 52.748-173.449 0-320.060-114.905-367.865-272.746 35.402 21.827 78.254 47.673 122.45 71.336zM524.8 64.205c42.394 136.192 145.306 426.598 87.654 484.25s-348.16-45.261-484.25-87.654c0-4.301 0-8.499 0-12.8 0-212.006 171.806-383.884 383.784-384h12.811z" />
<glyph unicode="&#xe91d;" glyph-name="fi-blog" d="M213.402 301.363h597.197v41.882h-597.197zM213.402 217.6h597.197v41.882h-597.197zM213.402 385.126h597.197v42.394h-597.197zM471.040 468.48h339.558v42.291h-339.558zM471.040 552.243h339.558v42.291h-339.558zM471.040 636.006h339.558v42.394h-339.558zM293.171 656.486v-155.955c0-3.994-3.379-8.704-11.469-9.318h-14.95v-18.637h110.285v18.637h-13.926c-10.854 0.717-12.902 5.734-12.902 9.011v157.184c15.872 0 42.291-2.867 42.291-35.635h35.123v56.627h-214.221v-56.32h37.888c0 30.106 24.678 35.635 42.291 35.635z" />
<glyph unicode="&#xe91e;" glyph-name="fi-bold" d="M642.355 457.114c54.784 11.264 99.942 60.826 99.942 133.12 0 77.21-56.218 147.558-166.81 147.558h-278.528c-14.704 0-26.624-11.92-26.624-26.624v-526.336c0-14.704 11.92-26.624 26.624-26.624h288.051c111.206 0 168.55 69.53 168.55 157.286 0 71.68-48.64 132.096-111.206 141.619zM393.83 629.146h154.726c41.677 0 67.789-25.19 67.789-60.826 0-37.376-26.112-60.826-67.789-60.826h-154.726zM553.677 266.752h-159.846v132.096h159.846c47.821 0 73.83-29.594 73.83-66.048 0-41.677-27.853-66.048-73.933-66.048z" />
<glyph unicode="&#xe91f;" glyph-name="fi-book-bookmark" d="M840.294 731.853v0c-0.28 8.949-7.52 16.117-16.471 16.281h-34.525v-618.598c0 0 0-0.001 0-0.001 0-9.203-7.402-16.677-16.578-16.792h-521.227c-8.293 0.031-15.174 6.032-16.574 13.927l-0.015 36.966h485.786c9.186 0.116 16.589 7.59 16.589 16.792 0 0 0 0.001 0 0.001v0 637.030c0 0.031 0 0.067 0 0.103 0 9.275-7.519 16.794-16.794 16.794-0.036 0-0.072 0-0.108 0h-58.977v-358.4c0-0.026 0-0.057 0-0.087 0-4.411-3.576-7.987-7.987-7.987-2.355 0-4.472 1.019-5.933 2.64l-58.067 58.068c-1.262 1.41-3.088 2.294-5.12 2.294s-3.858-0.884-5.114-2.287l-0.006-0.007-58.47-58.47c-1.433-1.376-3.382-2.224-5.53-2.224-4.411 0-7.987 3.576-7.987 7.987 0 0.026 0 0.052 0 0.077v358.396h-306.688c-9.331 0-16.896-7.565-16.896-16.896s0 0 0-0.614v-737.485s0 0 0-0.614 0 0 0-0.614v-0.819c0.71-8.667 7.906-15.436 16.689-15.462h623.414c9.186 0.116 16.589 7.59 16.589 16.792 0 0 0 0.001 0 0.001v0z" />
<glyph unicode="&#xe920;" glyph-name="fi-bookmark" d="M654.234 163.533l-142.234 142.234-142.234-142.234v568.934h284.467v-568.934z" />
<glyph unicode="&#xe921;" glyph-name="fi-brush" d="M240.026 384c0-27.648 16.691-79.974 79.974-79.974h64c0.755 0.045 1.639 0.070 2.528 0.070 25.167 0 45.568-20.401 45.568-45.568 0-0.889-0.025-1.772-0.076-2.649l0.006-171.399c0.058-20.11 16.345-36.396 36.449-36.454h87.148c20.11 0.058 36.396 16.345 36.454 36.449v171.423c-0.044 0.754-0.070 1.635-0.070 2.522 0 25.223 20.447 45.67 45.67 45.67 0.853 0 1.701-0.023 2.542-0.070l63.883 0.005c27.648 0 79.974 16.691 79.974 79.974v79.974h-544.051zM441.344 847.974l-57.344-57.344-57.344 57.344h-86.63v-351.949h543.949v351.949h-342.63z" />
<glyph unicode="&#xe922;" glyph-name="fi-calendar" d="M825.139 555.622h-626.278c-7.126 0-12.902-5.777-12.902-12.902v-449.741c0-7.126 5.777-12.902 12.902-12.902h626.278c0.030 0 0.066 0 0.102 0 7.126 0 12.902 5.777 12.902 12.902 0 0 0 0 0 0v449.638c0 0 0 0 0 0 0 7.126-5.777 12.902-12.902 12.902-0.036 0-0.072 0-0.108 0zM403.149 174.797c-22.97 0.056-44.924 4.334-65.151 12.096-1.194 0.53-2.896 2.868-2.896 5.604 0 0.294 0.020 0.583 0.058 0.867l6.038 43.896c0.248 2.013 1.406 3.712 3.043 4.694 0.853 0.417 1.821 0.652 2.845 0.652s1.992-0.235 2.855-0.653c16.799-6.795 36.328-10.747 56.78-10.747 0.689 0 1.376 0.004 2.063 0.013 22.424-0.001 38.193 10.239 38.193 25.906 0 18.944-9.114 29.082-58.982 31.846-3.428 0.168-6.144 2.989-6.144 6.444 0 0.003 0 0.005 0 0.008v44.441c0 0.006 0 0.013 0 0.020 0 3.383 2.604 6.157 5.916 6.429 42.929 3.074 47.946 16.283 47.946 25.909 0 6.554 0 17.51-29.082 17.51-17.993-0.457-34.81-5.062-49.665-12.891-0.235-0.137-1.24-0.39-2.303-0.39s-2.068 0.253-2.956 0.703c-1.777 0.935-3.058 2.69-3.338 4.763l-6.045 43.962c-0.040 0.27-0.063 0.583-0.063 0.9 0 2.583 1.518 4.811 3.71 5.842 20.49 8.922 44.315 14.103 69.35 14.103 1.589 0 3.174-0.021 4.753-0.062 52.4 0.005 87.728-24.469 87.728-60.821 0-27.238-14.131-47.309-43.008-61.44 24.781-9.626 50.176-26.931 50.176-63.693 0-52.429-44.032-86.323-112.64-86.323zM675.942 184.627c0-3.563-2.888-6.451-6.451-6.451h-52.736c-3.563 0-6.451 2.888-6.451 6.451v177.050l-35.226-13.414c-0.823-0.408-1.791-0.647-2.816-0.647s-1.993 0.239-2.854 0.664c-1.64 0.97-2.803 2.675-3.032 4.665l-6.044 43.958c-0.036 0.255-0.056 0.55-0.056 0.849 0 2.54 1.468 4.738 3.602 5.79l76.735 38.007c0.819 0.388 1.78 0.615 2.794 0.615 0.026 0 0.051 0 0.077 0h26.722c3.563 0 6.451-2.888 6.451-6.451v-250.88zM825.139 758.067h-66.765v-31.232c0-33.178-18.944-68.506-71.68-68.506s-72.294 35.43-72.294 68.506v31.232h-203.981v-31.232c0-33.178-18.944-68.506-71.68-68.506s-72.499 35.43-72.499 68.506v31.232h-67.584c-7.082-0.057-12.802-5.812-12.802-12.902 0-0.072 0.001-0.144 0.002-0.216v-131.471c0-7.182 5.822-13.005 13.005-13.005h626.278c0.031 0 0.067 0 0.103 0 7.126 0 12.902 5.777 12.902 12.902 0 0.036 0 0.072 0 0.108v131.476c0 0 0 0 0 0 0 7.126-5.777 12.902-12.902 12.902-0.036 0-0.072 0-0.108 0zM337.92 700.109c21.504 0 30.208 7.68 30.208 26.726v62.464c0 18.944-8.704 26.726-30.208 26.726s-30.72-7.68-30.72-26.726v-62.464c0-18.944 8.704-26.624 30.72-26.624zM686.080 700.109c21.402 0 30.208 7.68 30.208 26.726v62.464c0 18.944-8.704 26.726-30.208 26.726s-30.208-7.68-30.208-26.726v-62.464c0-18.944 8.704-26.624 30.208-26.624z" />
<glyph unicode="&#xe923;" glyph-name="fi-camera" d="M512 512.102c53.783 0 97.382-43.6 97.382-97.382s-43.6-97.382-97.382-97.382c-53.783 0-97.382 43.6-97.382 97.382s43.6 97.382 97.382 97.382zM888.627 712.192v0h-170.701v28.979c0 21.038-17.055 38.093-38.093 38.093h-335.667c-21.038 0-38.093-17.055-38.093-38.093v-28.57h-170.701c-0.001 0-0.001 0-0.002 0-21.038 0-38.093-17.055-38.093-38.093 0-0.144 0.001-0.288 0.002-0.431v-518.839c0-21.038 17.055-38.093 38.093-38.093h753.254c21.038 0 38.093 17.055 38.093 38.093v518.861c0 21.038-17.055 38.093-38.093 38.093zM514.56 217.19c-0.030 0-0.066 0-0.102 0-109.093 0-197.53 88.437-197.53 197.53s88.437 197.53 197.53 197.53c109.093 0 197.53-88.437 197.53-197.53 0-0.036 0-0.072 0-0.108-0.058-109.007-88.415-197.363-197.422-197.422zM875.725 559.206h-151.040v102.4h150.938v-102.4z" />
<glyph unicode="&#xe924;" glyph-name="fi-check-tick" d="M512 832c-212.077 0-384-171.923-384-384s171.923-384 384-384c212.077 0 384 171.923 384 384s-171.923 384-384 384zM662.426 522.24l-188.518-188.518c-5.705-5.69-13.577-9.208-22.272-9.208s-16.568 3.518-22.273 9.209l-95.129 95.129c-2.83 2.85-4.579 6.776-4.579 11.11s1.749 8.261 4.579 11.111l22.22 22.322c2.855 2.86 6.802 4.63 11.162 4.63s8.307-1.769 11.161-4.629l72.807-72.807 166.298 166.195c2.85 2.83 6.776 4.579 11.11 4.579s8.261-1.749 11.111-4.579l22.322-22.22c2.86-2.855 4.63-6.802 4.63-11.162s-1.769-8.307-4.629-11.161z" />
<glyph unicode="&#xe925;" glyph-name="fi-check" d="M853.914 657.203l-48.23 48.23c-6.171 6.173-14.697 9.991-24.115 9.991s-17.944-3.818-24.115-9.991l-360.346-359.834-157.798 157.491c-6.171 6.173-14.697 9.991-24.115 9.991s-17.944-3.818-24.115-9.991l-48.23-48.333c-6.173-6.171-9.991-14.697-9.991-24.115s3.818-17.944 9.991-24.115l206.029-206.029c12.347-12.376 29.42-20.033 48.282-20.033s35.934 7.657 48.28 20.032l408.475 408.475c6.173 6.171 9.991 14.697 9.991 24.115s-3.818 17.944-9.991 24.115z" />
<glyph unicode="&#xe926;" glyph-name="fi-clipboard-notes" d="M826.982 783.258v0s0 0.922 0 1.434c0 0 0 0 0 0 0 29.655-24.011 53.702-53.652 53.76h-150.329v34.714c0 0 0 0 0 0 0 9.013-7.277 16.326-16.276 16.384h-189.343c-8.992 0-16.282-7.29-16.282-16.282s0 0 0 0v-34.611h-150.426c-29.611-0.058-53.599-24.047-53.658-53.652s0-0.927 0-1.439v0-722.944c0-29.634 24.023-53.658 53.658-53.658h522.445c29.634 0 53.658 24.023 53.658 53.658s0 0 0 0.512v0 722.125zM725.197 108.134h-426.394v628.531h51.2v-31.437s0-0.614 0-1.024c0.058-10.249 8.38-18.534 18.637-18.534 0 0 0 0 0 0h286.72c0.061-0.001 0.134-0.001 0.206-0.001 10.165 0 18.418 8.182 18.533 18.32s0 0.011 0 0.011v32.666h51.2v-628.531zM400.896 538.931c0 0.003 0 0.007 0 0.011 0 6.606-5.213 11.995-11.751 12.276l-26.547 0.001c-6.786 0-12.288-5.502-12.288-12.288v-26.522c0.058-6.742 5.537-12.186 12.288-12.186 0 0 0 0 0 0h26.522c0 0 0 0 0 0 6.75 0 12.23 5.443 12.288 12.18v26.528zM674.099 538.931c-0.058 6.742-5.537 12.186-12.288 12.186 0 0 0 0 0 0h-197.53c-6.786 0-12.288-5.502-12.288-12.288v-26.522c0.058-6.742 5.537-12.186 12.288-12.186 0 0 0 0 0 0h197.53c0 0 0 0 0 0 6.75 0 12.23 5.443 12.288 12.18v26.63zM400.896 436.838c-0.051 6.567-5.245 11.905-11.751 12.185l-26.547 0.001c-6.786 0-12.288-5.502-12.288-12.288v-26.522c0.058-6.742 5.537-12.186 12.288-12.186 0 0 0 0 0 0h26.522c0 0 0 0 0 0 6.75 0 12.23 5.443 12.288 12.18v26.528zM674.099 436.838c-0.058 6.742-5.537 12.186-12.288 12.186 0 0 0 0 0 0h-197.53c-6.786 0-12.288-5.502-12.288-12.288v-26.522c0.058-6.742 5.537-12.186 12.288-12.186 0 0 0 0 0 0h197.53c0 0 0 0 0 0 6.75 0 12.23 5.443 12.288 12.18v26.528zM400.896 334.643c0 0.003 0 0.007 0 0.011 0 6.606-5.213 11.995-11.751 12.276l-26.547 0.001c-6.786 0-12.288-5.502-12.288-12.288v-26.522c0.058-6.742 5.537-12.186 12.288-12.186 0 0 0 0 0 0h26.522c0 0 0 0 0 0 6.75 0 12.23 5.443 12.288 12.18v26.528zM674.099 334.643c-0.058 6.742-5.537 12.186-12.288 12.186 0 0 0 0 0 0h-197.53c-6.786 0-12.288-5.502-12.288-12.288v-26.522c0.058-6.742 5.537-12.186 12.288-12.186 0 0 0 0 0 0h197.53c0 0 0 0 0 0 6.75 0 12.23 5.443 12.288 12.18v26.63z" />
<glyph unicode="&#xe927;" glyph-name="fi-clock" d="M512 730.214c155.863 0 282.214-126.352 282.214-282.214s-126.352-282.214-282.214-282.214c-155.863 0-282.214 126.352-282.214 282.214 0.175 155.793 126.422 282.040 282.198 282.214zM512 832c-212.077 0-384-171.923-384-384s171.923-384 384-384c212.077 0 384 171.923 384 384s-171.923 384-384 384zM708.506 590.643l-39.936 39.936c-3.686 3.59-8.727 5.804-14.285 5.804s-10.599-2.214-14.289-5.809l-127.996-127.791-70.246 70.246c-3.686 3.59-8.727 5.804-14.285 5.804s-10.599-2.214-14.289-5.809l-39.829-39.829c-3.62-3.691-5.854-8.753-5.854-14.336s2.234-10.645 5.858-14.339l124.31-124.208c3.68-3.651 8.741-5.915 14.331-5.939h0.824c5.445 0.138 10.342 2.38 13.928 5.94l181.861 181.759c3.59 3.686 5.804 8.727 5.804 14.285s-2.214 10.599-5.809 14.289z" />
<glyph unicode="&#xe928;" glyph-name="fi-close" d="M584.397 448l241.459 241.459c3.047 3.056 4.931 7.273 4.931 11.93s-1.884 8.874-4.931 11.93l-48.537 48.537c-3.056 3.047-7.273 4.931-11.93 4.931s-8.874-1.884-11.93-4.931l-241.459-241.459-241.459 241.459c-3.056 3.047-7.273 4.931-11.93 4.931s-8.874-1.884-11.93-4.931l-48.537-48.537c-3.047-3.056-4.931-7.273-4.931-11.93s1.884-8.874 4.931-11.93l241.459-241.459-241.459-241.459c-3.047-3.056-4.931-7.273-4.931-11.93s1.884-8.874 4.931-11.93l48.537-48.537c3.056-3.047 7.273-4.931 11.93-4.931s8.874 1.884 11.93 4.931l241.459 241.459 241.459-241.459c3.056-3.047 7.273-4.931 11.93-4.931s8.874 1.884 11.93 4.931l48.537 48.537c3.047 3.056 4.931 7.273 4.931 11.93s-1.884 8.874-4.931 11.93z" />
<glyph unicode="&#xe929;" glyph-name="fi-cloud" d="M849.101 474.931c-8.572 79.588-75.38 141.009-156.534 141.009-19.035 0-37.282-3.379-54.171-9.571-18.537 88.66-96.199 153.708-189.054 153.708-99.791 0-182.034-75.128-193.256-171.909-119.936-6.090-215.136-104.511-215.136-225.168 0-123.322 99.453-223.416 222.53-224.453l551.42-0.001c0.145 0 0.318-0.001 0.49-0.001 93.823 0 169.882 76.059 169.882 169.882 0 81.891-57.943 150.249-135.067 166.311z" />
<glyph unicode="&#xe92a;" glyph-name="fi-code" d="M29.594 428.954c-2.993 2.985-4.845 7.113-4.845 11.674s1.852 8.689 4.844 11.673l244.224 244.224c3.056 3.047 7.273 4.931 11.93 4.931s8.874-1.884 11.93-4.931l48.537-48.537c3.047-3.056 4.931-7.273 4.931-11.93s-1.884-8.874-4.931-11.93l-183.5-183.5 183.501-183.603c3.047-3.056 4.931-7.273 4.931-11.93s-1.884-8.874-4.931-11.93l-48.537-48.537c-3.056-3.047-7.273-4.931-11.93-4.931s-8.874 1.884-11.93 4.931l-183.5 183.5zM994.406 428.954c2.993 2.985 4.845 7.113 4.845 11.674s-1.852 8.689-4.844 11.673l-244.224 244.224c-3.056 3.047-7.273 4.931-11.93 4.931s-8.874-1.884-11.93-4.931l-48.537-48.537c-3.047-3.056-4.931-7.273-4.931-11.93s1.884-8.874 4.931-11.93l183.5-183.5-183.501-183.603c-3.047-3.056-4.931-7.273-4.931-11.93s1.884-8.874 4.931-11.93l48.537-48.537c3.056-3.047 7.273-4.931 11.93-4.931s8.874 1.884 11.93 4.931l183.5 183.5zM430.899 125.952l-64.922 23.654c-6.586 2.335-11.219 8.511-11.219 15.769 0 2.020 0.359 3.956 1.016 5.749l214.593 588.889c2.335 6.586 8.511 11.219 15.769 11.219 2.020 0 3.956-0.359 5.749-1.016l64.806-23.617c6.586-2.335 11.219-8.511 11.219-15.769 0-2.020-0.359-3.956-1.016-5.749l-214.696-589.094c-2.335-6.586-8.511-11.219-15.769-11.219-2.020 0-3.956 0.359-5.749 1.016z" />
<glyph unicode="&#xe92b;" glyph-name="fi-coffee-cup" d="M138.854 214.733h792.986s0-93.286-93.286-93.286h-606.413c-93.286 0-93.286 93.286-93.286 93.286zM791.859 774.554h-466.432c-46.694 0-46.694-49.971-46.694-49.971v-8.602c-14.363 5.448-30.97 8.602-48.313 8.602-77.309 0-139.981-62.672-139.981-139.981s62.672-139.981 139.981-139.981c17.343 0 33.95 3.154 49.278 8.92l-0.965-102.206c0-46.694 46.694-43.315 46.694-43.315h46.694v-46.694h373.146v46.694h46.694s46.694-3.379 46.694 43.315v373.146s0 49.971-46.694 49.971zM232.141 537.907c-25.789 0-46.694 20.906-46.694 46.694s20.906 46.694 46.694 46.694c25.789 0 46.694-20.906 46.694-46.694v0c-0.058-25.745-20.942-46.592-46.694-46.592 0 0 0 0 0 0z" />
<glyph unicode="&#xe92c;" glyph-name="fi-color-pick-eyedropper" d="M634.88 759.194l40.96-40.96-276.48-275.763c0.36-3.634 0.565-7.854 0.565-12.123 0-33.733-12.813-64.474-33.839-87.62l20.576-20.373 20.48-20.48c23.079 21.092 53.936 34.013 87.81 34.013 4.127 0 8.21-0.192 12.239-0.567l275.349 275.7 40.96-40.96 45.978 45.978-189.133 189.133zM506.675 391.373c-6.552-6.552-15.603-10.604-25.6-10.604-19.995 0-36.204 16.209-36.204 36.204 0 9.997 4.052 19.048 10.604 25.6l247.91 247.603 51.2-51.2zM953.754 889.446v0c-13.753 13.77-32.762 22.288-53.76 22.288s-40.007-8.518-53.759-22.287l-107.214-107.214 107.52-107.52 107.213 107.213c13.77 13.753 22.288 32.762 22.288 53.76s-8.518 40.007-22.287 53.759zM488.96 88.678h-335.974v335.974l141.619 0.512c4.637 0 8.397 3.759 8.397 8.397v87.654c-0.058 4.593-3.795 8.294-8.396 8.294 0 0 0 0-0.001 0h-238.182c-4.637 0-8.397-3.759-8.397-8.397l0.512-528.589c0-4.637 3.759-8.397 8.397-8.397h529.101c4.637 0 8.397 3.759 8.397 8.397v237.773c0 4.637-3.759 8.397-8.397 8.397h-88.269c0 0 0 0-0.001 0-4.601 0-8.338-3.701-8.396-8.289z" />
<glyph unicode="&#xe92d;" glyph-name="fi-comment-2" d="M512 811.622c217.702 0 394.24-147.149 394.24-328.602s-176.538-328.499-394.24-328.499c-17.042 0.072-33.769 1.037-50.24 2.851-58.098-40.599-130.909-66.876-209.413-72.703l-5.562-0.087c-11.571 0-22.835 3.891-8.909 11.469 30.72 16.589 77.312 49.254 94.106 95.027-127.181 54.374-214.221 164.762-214.221 291.942 0 181.453 176.538 328.602 394.24 328.602zM512 845.926c-236.237 0-428.544-162.406-428.544-362.906 0-126.157 75.981-241.050 200.704-307.2-17.496-20.029-38.24-36.69-61.503-49.291-29.428-16.142-26.049-39.285-24.308-46.043 2.355-9.114 11.776-30.72 48.538-30.72 2.355 0 4.608 0 6.861 0 81.849 6.23 156.554 32.092 220.895 72.842 12.065-2.288 24.967-2.288 37.358-2.288 236.237 0 428.544 162.714 428.544 362.803s-192.205 362.803-428.544 362.803z" />
<glyph unicode="&#xe92e;" glyph-name="fi-comment-3" d="M512 832c-251.699 0-408.064-128.614-408.064-335.77 0-135.68 66.458-239.309 187.597-293.478-4.7-39.109-18.501-74.273-39.214-104.303l-25.094-34.449h43.622c117.248 0 185.958 50.586 224.256 96.87 5.632 0 11.264 0 16.896 0 256 0 408.166 125.542 408.166 335.77 0 206.746-156.467 335.36-408.166 335.36zM512 256.512l-60.723 1.843-30.106-36.25c-9.913-11.795-21.237-21.948-33.826-30.355l9.66 69.165-66.253 29.491c-86.835 38.81-130.765 108.032-130.765 205.824 0 216.371 218.214 239.821 312.115 239.821s312.115-23.347 312.115-239.821c-0.102-208.589-195.584-239.718-312.218-239.718z" />
<glyph unicode="&#xe92f;" glyph-name="fi-comment" d="M332.083 190.976c-16.794-45.773-63.795-78.438-94.106-95.027-13.926-7.68-2.765-11.571 8.909-11.571h4.096c79.99 5.975 152.797 32.322 214.583 73.813 12.775-2.638 29.502-3.603 46.442-3.669 217.797 0 394.335 147.046 394.335 328.499s-176.64 328.602-394.342 328.602-394.24-147.149-394.24-328.602c0-127.181 87.040-237.568 214.323-292.045z" />
<glyph unicode="&#xe930;" glyph-name="fi-comments-2" d="M540.365 266.854c-26.824-8.824-57.702-13.95-89.766-14.029-18.313 0.007-36.208 1.608-53.598 4.673-26.63-22.744-62.343-37.238-101.309-39.867l-2.316-0.031c-5.018 0-10.24 1.638-3.789 5.018 15.872 8.704 42.496 27.443 43.315 54.272-82.022 35.226-138.342 106.496-138.342 188.826 0 117.453 114.483 212.787 256 212.787 106.598 0 197.837-54.477 236.134-131.789 15.333-1.882 29.189-5.080 42.458-9.552-37.645 101.609-148.032 175.44-277.978 175.44-160.666-0.102-290.509-111.002-290.509-246.886 0-82.739 47.616-158.413 126.464-203.981-4.107-3.373-8.698-6.494-13.56-9.183-12.609-6.266-20.806-18.58-20.806-32.808 0-2.977 0.359-5.87 1.035-8.638 4.563-15.843 19.146-27.42 36.432-27.42 1.071 0 2.132 0.044 3.18 0.132l4.368-0.009c41.165 3.102 78.596 16.819 110.246 38.39 11.991-2.197 26.757-3.164 41.749-3.164 0.096 0 0.193 0 0.289 0 0.163 0 0.374-0.001 0.585-0.001 46.946 0 91.586 9.872 131.957 27.654-17.444 5.184-30.67 12.31-42.882 20.794zM659.046 531.558c94.003 0 170.394-63.078 170.394-141.926 0-54.989-37.683-102.4-92.16-126.054 8.789-17.976 22.984-32.171 40.443-40.731 6.558-3.506 1.643-5.246-3.272-5.246h-1.741c-34.596 2.52-66.106 13.866-92.853 31.771-5.411-1.12-12.529-1.529-19.736-1.563-94.054 0-170.24 63.488-170.24 141.824s76.186 141.926 170.189 141.926zM660.070 565.658c-112.64 0-204.288-78.95-204.288-175.923s92.16-175.923 204.288-175.923c3.891 0 7.987 0 12.186 0 28.096-16.787 61.44-27.833 97.097-30.669l5.2-0.051c0.911-0.078 1.972-0.122 3.043-0.122 17.287 0 31.869 11.577 36.418 27.401 0.691 2.787 1.050 5.68 1.050 8.657 0 14.228-8.197 26.542-20.127 32.476l-4 2.245c43.594 30.115 71.919 79.642 72.396 135.811 0 97.149-92.16 175.997-204.8 175.997z" />
<glyph unicode="&#xe931;" glyph-name="fi-comments" d="M422.093 164.557c-0.079 0-0.173 0-0.266 0-26.459 0-52.378 2.31-77.567 6.738-38.512-32.929-90.142-53.961-146.486-57.89l-3.213-0.048c-7.27 0-14.234 2.458-5.53 7.168 22.938 12.698 61.44 39.834 62.976 78.848-118.886 51.302-200.806 154.829-200.806 274.33 0 170.701 165.99 309.043 370.893 309.043 142.336 0 265.626-66.97 327.68-165.069-8.090 0.614-16.179 1.024-24.371 1.024-163.84 0-296.96-114.586-296.96-256 0-73.626 36.557-139.878 94.72-186.573-30.439-7.655-65.387-12.059-101.361-12.083zM838.042 179.507c10.854-28.467 40.346-48.947 59.392-59.187 8.704-4.813 1.741-7.168-5.53-7.168h-2.56c-49.996 3.803-95.489 20.284-134.121 46.2-8.024-1.643-18.526-2.238-29.159-2.271-136.547 0-247.242 92.16-247.242 206.029s110.182 206.234 246.682 206.234 247.296-92.262 247.296-206.131c0-79.872-54.682-148.992-134.451-183.194z" />
<glyph unicode="&#xe932;" glyph-name="fi-community-people" d="M984.269 370.381l-165.786 79.053c39.436 27.071 64.969 71.911 64.969 122.715 0 1.318-0.017 2.633-0.051 3.943 0.004 79.166-55.292 143.166-123.49 143.166-23.902-0.17-45.957-7.938-63.905-21.006 11.331-27.005 17.723-58.578 17.723-91.644 0-0.104 0-0.209 0-0.313 0-0.016 0-0.054 0-0.091 0-49.67-14.625-95.924-39.804-134.69 8.812-8.497 18.253-16.603 28.736-23.206l0.522-0.307 106.803-51.2c29.716-15.423 49.667-45.959 49.667-81.155 0-0.269-0.001-0.538-0.003-0.806v-138.506h114.074c15.52 1.327 27.615 14.252 27.615 30.002 0 0.721-0.025 1.436-0.075 2.144l0.005 132.103c0.011 0.319 0.018 0.694 0.018 1.070 0 12.344-6.846 23.088-16.949 28.643zM323.277 449.741c9.192 6.005 17.155 12.764 24.189 20.393-25.584 38.293-40.881 85.328-40.881 135.936 0 0.12 0 0.241 0 0.361 0 0.017 0 0.059 0 0.101 0 33.797 6.697 66.030 18.835 95.444-17.636 10.258-38.712 17.495-61.463 17.791-68.272 0.001-123.568-64.306-123.568-143.359-0.046-1.384-0.073-3.010-0.073-4.643 0-51.583 26.431-96.992 66.489-123.423l-166.768-77.962c-10.382-5.582-17.322-16.369-17.322-28.776 0-0.36 0.006-0.718 0.017-1.074l-0.001-132.044c-0.044-0.613-0.070-1.328-0.070-2.049 0-15.75 12.095-28.676 27.504-29.995l110.704-0.008v138.445c-0.007 0.408-0.010 0.889-0.010 1.371 0 35.491 20.379 66.222 50.073 81.131zM787.866 351.846l-144.179 68.813-61.44 29.082c27.574 18.014 49.16 43.122 62.445 72.761 11.745 25.366 18.348 53.816 18.348 83.808-0.199 17.22-2.503 33.812-6.666 49.65-17.808 73.23-76.073 128.321-146.115 128.321s-126.157-53.043-145.408-125.645c-4.554-15.604-7.271-33.555-7.474-52.11 0.070-31.94 7.626-61.985 20.999-88.603 13.413-28.48 34.801-52.631 61.271-69.522l-57.695-27.538-149.094-68.915c-12.844-6.895-21.429-20.232-21.429-35.575 0-0.525 0.010-1.049 0.030-1.569l-0.002-163.765c-0.040-0.644-0.062-1.396-0.062-2.154 0-19.542 15.080-35.562 34.238-37.057l529.229-0.008c19.193 1.605 34.163 17.579 34.163 37.049 0 0.763-0.023 1.521-0.068 2.273l0.005 163.737c0.015 0.416 0.024 0.904 0.024 1.394 0 15.236-8.445 28.499-20.91 35.364z" />
<glyph unicode="&#xe933;" glyph-name="fi-compass" d="M512 832c-212.077 0-384-171.923-384-384s171.923-384 384-384c212.077 0 384 171.923 384 384s-171.923 384-384 384zM512 165.786c-155.863 0-282.214 126.352-282.214 282.214s126.352 282.214 282.214 282.214c155.863 0 282.214-126.352 282.214-282.214-0.175-155.793-126.422-282.040-282.198-282.214zM662.221 625.254l-200.090-119.296c-2.755-1.618-5-3.83-6.609-6.471l-120.776-201.708c-1.774-2.839-2.826-6.288-2.826-9.983 0-5.466 2.302-10.394 5.99-13.868l0.829-0.828c3.446-3.407 8.183-5.516 13.412-5.53 0.124-0.003 0.267-0.004 0.41-0.004 3.637 0 7.034 1.031 9.913 2.816l200.726 121.195c2.705 1.68 4.912 3.919 6.505 6.568l119.447 200.177c1.554 2.817 2.469 6.176 2.469 9.748 0 5.424-2.109 10.356-5.551 14.020-3.446 3.493-8.246 5.664-13.553 5.664-3.613 0-6.99-1.006-9.869-2.753z" />
<glyph unicode="&#xe934;" glyph-name="fi-credit-card-new" d="M133.12 213.402c0-20.303 16.459-36.762 36.762-36.762h684.237c20.303 0 36.762 16.459 36.762 36.762v290.918h-757.76zM854.118 719.36h-684.237c-20.303 0-36.762-16.459-36.762-36.762v-75.878h757.76v75.878c0 20.303-16.459 36.762-36.762 36.762z" />
<glyph unicode="&#xe935;" glyph-name="fi-credit-card" d="M133.12 213.402c0-20.303 16.459-36.762 36.762-36.762h684.237c20.303 0 36.762 16.459 36.762 36.762v290.918h-757.76zM854.118 719.36h-684.237c-20.303 0-36.762-16.459-36.762-36.762v-75.878h757.76v75.878c0 20.303-16.459 36.762-36.762 36.762z" />
<glyph unicode="&#xe936;" glyph-name="fi-crop" d="M903.475 232.346h-74.035v481.894h-0.512c0 0.717 0 1.331 0 2.15 0 0.061 0 0.133 0 0.205 0 26.976-21.869 48.845-48.845 48.845-0.036 0-0.072 0-0.108 0h-483.015v72.602c0 0 0 0 0 0 0 15.213-12.333 27.546-27.546 27.546-0.036 0-0.072 0-0.108 0h-46.791c-0.122 0.002-0.266 0.003-0.41 0.003-15.213 0-27.546-12.333-27.546-27.546 0-0.001 0-0.002 0-0.003v0-72.602h-74.035c-15.213 0-27.546-12.333-27.546-27.546v-46.797c0-15.213 12.333-27.546 27.546-27.546h74.035v-481.792h0.512c0-0.717 0-1.434 0-2.15 0-0.061 0-0.133 0-0.205 0-26.976 21.869-48.845 48.845-48.845 0.072 0 0.144 0 0.216 0h482.907v-72.397c0-15.213 12.333-27.546 27.546-27.546h46.797c0.153-0.003 0.332-0.005 0.513-0.005 15.143 0 27.432 12.219 27.545 27.335v72.612h74.342c15.213 0 27.546 12.333 27.546 27.546v46.592c0 15.213-12.333 27.546-27.546 27.546zM296.96 232.346v431.309h430.080v-431.309h-430.080z" />
<glyph unicode="&#xe937;" glyph-name="fi-cross-close" d="M512 832c-212.077 0-384-171.923-384-384s171.923-384 384-384c212.077 0 384 171.923 384 384s-171.923 384-384 384zM649.626 350.72c2.541-2.524 4.113-6.019 4.113-9.882s-1.573-7.358-4.112-9.881l-20.481-20.481c-2.524-2.541-6.019-4.113-9.882-4.113s-7.358 1.573-9.881 4.112l-97.383 97.281-97.382-97.382c-2.566-2.445-6.048-3.95-9.882-3.95s-7.315 1.504-9.887 3.955l-20.474 20.474c-2.541 2.524-4.113 6.019-4.113 9.882s1.573 7.358 4.112 9.881l97.383 97.383-97.382 97.382c-2.541 2.524-4.113 6.019-4.113 9.882s1.573 7.358 4.112 9.881l20.481 20.481c2.535 2.516 6.027 4.071 9.882 4.071s7.347-1.555 9.882-4.072l97.382-97.382 97.382 97.382c2.535 2.516 6.027 4.071 9.882 4.071s7.347-1.555 9.882-4.072l20.479-20.479c2.541-2.524 4.113-6.019 4.113-9.882s-1.573-7.358-4.112-9.881l-97.383-97.383z" />
<glyph unicode="&#xe938;" glyph-name="fi-crown" d="M860.16 140.8v0c0 16.966-13.754 30.72-30.72 30.72h-634.88c-16.966 0-30.72-13.754-30.72-30.72v-39.629c0-16.966 13.754-30.72 30.72-30.72h634.88c16.966 0 30.72 13.754 30.72 30.72zM252.109 566.477v0 0c-5.807 5.062-13.451 8.148-21.816 8.148-18.184 0-32.963-14.585-33.275-32.695l-0.82-0.029v-299.213h1.024c1.419-17.221 15.72-30.667 33.172-30.72h563.205v0.819c17.063 0.048 31.112 12.891 33.060 29.437l0.015 0.157v293.478c0.453 2.092 0.714 4.497 0.717 6.961 0 0.051 0 0.11 0 0.169 0 18.38-14.9 33.28-33.28 33.28-8.033 0-15.402-2.846-21.152-7.585l0.057 0.046-0.922-0.922c-1.141-0.996-2.178-2.033-3.142-3.136l-70.484-70.489-161.894 162.406c-6.077 6.535-14.722 10.61-24.32 10.61s-18.243-4.075-24.301-10.59l-0.019-0.020-163.328-162.714-69.325 69.325c-1.034 1.173-2.104 2.243-3.238 3.243zM747.52 480.461v-1.024h-1.024zM228.864 744.038c33.932 0 61.44-27.508 61.44-61.44s-27.508-61.44-61.44-61.44c-33.932 0-61.44 27.508-61.44 61.44s27.508 61.44 61.44 61.44zM792.064 744.038c33.932 0 61.44-27.508 61.44-61.44s-27.508-61.44-61.44-61.44c-33.932 0-61.44 27.508-61.44 61.44s27.508 61.44 61.44 61.44zM515.584 825.958c33.932 0 61.44-27.508 61.44-61.44s-27.508-61.44-61.44-61.44c-33.932 0-61.44 27.508-61.44 61.44s27.508 61.44 61.44 61.44z" />
<glyph unicode="&#xe939;" glyph-name="fi-dashboard" d="M231.936 655.36c0-14.138-11.462-25.6-25.6-25.6s-25.6 11.462-25.6 25.6c0 14.138 11.462 25.6 25.6 25.6s25.6-11.462 25.6-25.6zM303.616 655.36c0-14.138-11.462-25.6-25.6-25.6s-25.6 11.462-25.6 25.6c0 14.138 11.462 25.6 25.6 25.6s25.6-11.462 25.6-25.6zM375.296 655.36c0-14.138-11.462-25.6-25.6-25.6s-25.6 11.462-25.6 25.6c0 14.138 11.462 25.6 25.6 25.6s25.6-11.462 25.6-25.6zM864.051 193.638h-704.102v508.723h704.102zM915.251 794.419h-806.502c-22.622 0-40.96-18.338-40.96-40.96v-611.021c0-22.622 18.338-40.96 40.96-40.96h806.502c22.622 0 40.96 18.338 40.96 40.96v611.123c0 22.622-18.338 40.96-40.96 40.96zM590.336 442.061h-56.73c-6.956 0-12.595-5.639-12.595-12.595v-179.61c0-6.956 5.639-12.595 12.595-12.595h56.832c6.956 0 12.595 5.639 12.595 12.595v179.61c0 6.956-5.639 12.595-12.595 12.595zM702.976 544.461h-56.73c-6.956 0-12.595-5.639-12.595-12.595v-282.010c0-6.956 5.639-12.595 12.595-12.595h56.832c6.956 0 12.595 5.639 12.595 12.595v282.010c0 6.956-5.639 12.595-12.595 12.595zM815.616 472.781h-56.73c-6.956 0-12.595-5.639-12.595-12.595v-210.33c0-6.956 5.639-12.595 12.595-12.595h56.832c6.956 0 12.595 5.639 12.595 12.595v210.33c0 6.956-5.639 12.595-12.595 12.595zM318.259 424.038l61.44 105.574c-17.62 10.438-38.837 16.607-61.495 16.607-67.469 0-122.163-54.694-122.163-122.163s54.694-122.163 122.163-122.163c66.274 0 120.223 52.775 122.112 118.592zM474.317 441.754c0 1.024 0 2.048 0 3.174-0.032 42.303-22.882 79.262-56.905 99.239l-58.192-99.239zM292.557 257.741h-92.16c-2.771 0-5.018-2.246-5.018-5.018v-10.24c0-2.771 2.246-5.018 5.018-5.018h92.16c2.771 0 5.018 2.246 5.018 5.018v10.24c0 2.771-2.246 5.018-5.018 5.018zM429.363 257.741h-92.16c-2.771 0-5.018-2.246-5.018-5.018v-10.24c0-2.771 2.246-5.018 5.018-5.018h92.16c2.771 0 5.018 2.246 5.018 5.018v10.24c0 2.771-2.246 5.018-5.018 5.018z" />
<glyph unicode="&#xe93a;" glyph-name="fi-dislike" d="M845.107 654.95v0c-0.018 3.559-1.462 6.777-3.789 9.114v0l-99.942 100.045c-2.197 1.827-5.047 2.935-8.157 2.935-0.736 0-1.457-0.062-2.159-0.181l-371.841 0.011c-13.845-0.040-25.132-10.934-25.802-24.618l-0.002-0.060v-0.819s0 0 0 0 0 0 0 0v-373.76c0-14.365 11.645-26.010 26.010-26.010h103.014c1.586-2.501 3.414-4.655 5.501-6.528l1.155-1.971v-1.126h0.614l99.43-172.237c10.202-18.090 29.293-30.106 51.19-30.106 0.004 0 0.007 0 0.011 0 32.512 0.231 58.779 26.641 58.779 59.186 0 0.181-0.001 0.361-0.002 0.541l0.615-0.028v151.45h140.186c13.929 0.397 25.082 11.73 25.19 25.692v288.472zM280.678 695.091v0c0 14.365-11.645 26.010-26.010 26.010h-50.483c-13.929-0.397-25.082-11.73-25.19-25.692v-281.611c1.213-12.928 11.805-23.023 24.842-23.449l0.041-0.001h51.2c0.202-0.006 0.439-0.009 0.677-0.009 13.969 0 25.293 11.324 25.293 25.293 0 1.523-0.135 3.014-0.392 4.463z" />
<glyph unicode="&#xe93b;" glyph-name="fi-dollar" d="M555.827 501.248v103.526c36.446-8.656 68.088-25.657 93.996-48.917l-0.198 0.175c1.917-1.56 4.39-2.506 7.083-2.506 3.603 0 6.811 1.692 8.873 4.324l0.019 0.025 43.622 61.44c1.864 2.018 3.007 4.726 3.007 7.702 0 3.474-1.559 6.584-4.015 8.669-40.792 36.869-93.536 61.181-151.772 66.498l-1.025 59.57c0 6.504-5.272 11.776-11.776 11.776h-46.49c-6.504 0-11.776-5.272-11.776-11.776v-57.754c-101.274-10.24-161.28-75.059-161.28-150.733 0-102.4 83.968-131.277 161.28-150.016v-116.531c-46.779 8.816-87.243 31.401-118.111 63.324l-0.673 0.676-0.512 0.512c-2.009 1.827-4.691 2.945-7.634 2.945-4.521 0-8.425-2.639-10.256-6.461l-0.030-0.068-42.189-62.669c-1.975-2.042-3.192-4.828-3.192-7.898 0-3.65 1.721-6.899 4.396-8.979l0.026-0.019c40.96-40.96 99.021-71.68 177.766-78.029v-55.706c0-6.504 5.272-11.776 11.776-11.776h46.899c6.504 0 11.776 5.272 11.776 11.776v0 55.603c110.694 11.264 165.478 75.776 165.478 159.027 0 102.4-87.040 133.12-165.069 152.269zM485.376 518.554c-30.72 10.24-51.814 20.992-51.814 42.803 0 25.498 18.739 43.52 51.814 48.026zM555.827 285.184v100.557c32.973-10.24 56.218-22.528 56.218-47.206s-18.125-45.773-56.218-53.35z" />
<glyph unicode="&#xe93c;" glyph-name="fi-download-cloud" d="M849.101 522.342c-8.572 79.588-75.38 141.009-156.534 141.009-19.035 0-37.282-3.379-54.171-9.571-19.69 87.444-96.85 151.203-188.901 151.203-99.005 0-180.784-73.756-193.387-169.319-120.224-5.174-216.106-103.169-216.887-223.736-0.82-124.287 105.881-225.97 230.092-225.97h27.648c9.671 0 17.51 7.84 17.51 17.51v78.746c0 88.166 67.789 163.84 155.955 168.243 2.354 0.121 5.112 0.19 7.885 0.19 90.486 0 163.84-73.354 163.84-163.84 0-0.067 0-0.134 0-0.2v-83.343c0-9.671 7.84-17.51 17.51-17.51h150.426c93.594 0 174.797 76.493 174.694 170.086 0 0.005 0 0.010 0 0.016 0 81.735-57.688 149.996-134.569 166.29zM587.264 237.261l-101.581-141.926c-1.847-2.446-4.726-4.028-7.976-4.096h-0.011c-3.262 0.068-6.14 1.65-7.969 4.070l-101.087 141.952c-1.102 1.609-1.759 3.597-1.759 5.739 0 1.639 0.385 3.187 1.069 4.561 1.702 3.059 4.933 5.159 8.663 5.265h47.426v127.386c0 5.655 4.585 10.24 10.24 10.24h87.962c5.655 0 10.24-4.585 10.24-10.24v-127.488h47.514c5.3-0.429 9.438-4.835 9.438-10.209 0-1.94-0.539-3.753-1.476-5.299z" />
<glyph unicode="&#xe93d;" glyph-name="fi-download" d="M865.382 451.891h-179.302c-0.014 0-0.030 0-0.046 0-22.166 0-40.982-14.344-47.672-34.257-18.298-53.648-67.935-91.29-126.363-91.29s-108.064 37.642-125.981 89.999c-7.103 21.199-25.926 35.535-48.098 35.548h-179.304c-27.825 0-50.381-22.556-50.381-50.381v-287.232c0-27.825 22.556-50.381 50.381-50.381h706.56c27.825 0 50.381 22.556 50.381 50.381v287.334c0 27.825-22.556 50.381-50.381 50.381zM501.76 425.062c2.504-3.429 6.51-5.632 11.031-5.632 0.010 0 0.020 0 0.030 0h-0.002c0.002 0 0.005 0 0.008 0 4.549 0 8.574 2.248 11.023 5.693l138.985 195.933c1.632 2.207 2.613 4.983 2.613 7.988 0 7.465-6.052 13.517-13.517 13.517-0.055 0-0.109 0-0.164-0.001h-65.528v175.923c0 0.030 0 0.066 0 0.102 0 7.465-6.052 13.517-13.517 13.517 0 0 0 0 0 0h-121.344c0 0 0 0 0 0-7.465 0-13.517-6.052-13.517-13.517 0-0.036 0-0.072 0-0.108v-175.918h-65.536c-0.024 0-0.052 0-0.081 0-7.465 0-13.517-6.052-13.517-13.517 0-2.96 0.951-5.698 2.565-7.924z" />
<glyph unicode="&#xe93e;" glyph-name="fi-eye-hide" d="M290.509 726.733c-1.851 1.84-4.402 2.978-7.219 2.978s-5.368-1.137-7.22-2.978l-43.52-43.212c-1.84-1.851-2.978-4.402-2.978-7.219s1.137-5.368 2.978-7.22l499.507-499.814c1.851-1.84 4.402-2.978 7.219-2.978s5.368 1.137 7.22 2.978l43.52 43.212c1.84 1.851 2.978 4.402 2.978 7.219s-1.137 5.368-2.978 7.22zM621.056 454.042c-3.237 55.543-47.472 99.777-102.719 103.001zM403.046 440.422c3.958-54.322 47.054-97.418 101.019-101.355zM512 607.642c0.144 0 0.314 0.001 0.485 0.001 87.885 0 159.13-71.245 159.13-159.13 0-14.193-1.858-27.953-5.345-41.048l107.464-106.102c42.934 40.635 77.746 89.351 102.077 143.778s-96.24 253.739-363.812 253.739c-0.499 0.002-1.089 0.004-1.679 0.004-41.467 0-81.393-6.594-118.788-18.79l81.043-77.572c11.814 3.194 25.388 5.059 39.387 5.12zM512 288.358c-0.189-0.001-0.412-0.001-0.636-0.001-87.828 0-159.027 71.199-159.027 159.027 0 13.822 1.763 27.232 5.077 40.018l-107.968 106.518c-42.555-40.484-77.085-88.952-101.258-143.060s96.241-253.74 363.812-253.74c0.543-0.003 1.186-0.004 1.83-0.004 40.995 0 80.486 6.443 117.514 18.372l-81.148 77.684c-11.448-2.999-24.603-4.751-38.157-4.813z" />
<glyph unicode="&#xe93f;" glyph-name="fi-eye" d="M512 288.358c88.168 0 159.642 71.474 159.642 159.642s-71.474 159.642-159.642 159.642c-88.168 0-159.642-71.474-159.642-159.642s71.474-159.642 159.642-159.642zM147.046 448s97.382 250.88 364.954 250.88 364.954-250.88 364.954-250.88-97.382-250.88-364.954-250.88-364.954 250.88-364.954 250.88zM512 379.597c37.778 0 68.403 30.625 68.403 68.403s-30.625 68.403-68.403 68.403c-37.778 0-68.403-30.625-68.403-68.403s30.625-68.403 68.403-68.403z" />
<glyph unicode="&#xe940;" glyph-name="fi-fast-forward" d="M884.224 448c0 0.024 0 0.053 0 0.081 0 7.053-4.145 13.137-10.132 15.95l-0.108 0.045-382.976 221.594c-3.197 3.364-7.705 5.456-12.701 5.456-9.671 0-17.51-7.84-17.51-17.51 0-0.118 0.001-0.236 0.004-0.354v0.018-155.75l-291.021 168.141c-3.17 3.174-7.551 5.137-12.39 5.137-9.671 0-17.51-7.84-17.51-17.51 0-0.006 0-0.012 0-0.018v0.001-450.56c0.013-9.717 7.894-17.589 17.613-17.589 4.934 0 9.394 2.029 12.592 5.298l290.717 168.144v-155.853c-0.003-0.127-0.005-0.277-0.005-0.426 0-9.727 7.886-17.613 17.613-17.613 5.2 0 9.874 2.254 13.098 5.838l384.219 222.019v0.512c5.095 3.119 8.454 8.638 8.499 14.944z" />
<glyph unicode="&#xe941;" glyph-name="fi-filter" d="M921.6 731.75c-0.032 35.871-28.435 65.099-63.979 66.454l-688.661 0.004c-36.76 0-66.56-29.8-66.56-66.56 0-20.88 9.614-39.514 24.657-51.717l308.757-308.628v-192c0.736-12.147 7.614-22.537 17.543-28.173l0.172-0.090 82.739-47.821c5.064-3.055 11.18-4.862 17.717-4.862 19.172 0 34.714 15.542 34.714 34.714 0 0.125-0.001 0.25-0.002 0.375 0 0.903 0 1.722 0 2.643v0 235.52l311.603 310.886c13.117 12.142 21.302 29.451 21.302 48.671 0 0.205-0.001 0.41-0.003 0.615zM330.24 665.19v0 0z" />
<glyph unicode="&#xe942;" glyph-name="fi-finger-point" d="M748.749 520.192c-14.869-0.016-28.498-5.311-39.116-14.111-5.613 28.575-30.434 49.739-60.197 49.739-15.056 0-28.847-5.416-39.532-14.405-4.826 29.5-30.101 51.648-60.549 51.648-14.117 0-27.123-4.761-37.497-12.766l0.143 174.186c0 33.932-27.508 61.44-61.44 61.44s-61.44-27.508-61.44-61.44v-316.723l-71.68 68.608c-11.341 13.309-28.117 21.694-46.853 21.694-33.932 0-61.44-27.508-61.44-61.44 0-19.785 9.352-37.385 23.876-48.623l79.194-75.369c29.531-28.145 54.266-60.985 73.074-97.385l23.284-46.282c22.938-54.17 72.704-118.579 179.814-118.579 176.845 0 221.491 123.392 221.491 206.95v171.725c0 33.932-27.508 61.44-61.44 61.44z" />
<glyph unicode="&#xe943;" glyph-name="fi-finger-swipe" d="M774.963 468.48c-14.869-0.016-28.498-5.311-39.116-14.111-5.613 28.575-30.434 49.739-60.197 49.739-15.056 0-28.847-5.416-39.532-14.405-4.775 29.558-30.078 51.768-60.568 51.768-14.245 0-27.358-4.848-37.779-12.984l0.136 174.182c0 33.932-27.508 61.44-61.44 61.44s-61.44-27.508-61.44-61.44v-317.44h-106.906c-26.214 0-45.67-17.51-45.67-54.374 1.362-34.592 27.985-62.56 61.864-66.024 42.994-0.024 88.255-21.426 91.224-45.695 1.638-14.95 22.323-190.976 198.861-190.976s221.798 123.597 221.798 207.155v171.725c0 33.932-27.508 61.44-61.44 61.44zM297.677 583.27l14.643 14.643c3.804 3.722 6.162 8.907 6.162 14.643s-2.358 10.922-6.158 14.64l-95.236 95.236 95.232 95.232c3.804 3.722 6.162 8.907 6.162 14.643s-2.358 10.922-6.158 14.64l-14.647 14.647c-3.722 3.804-8.907 6.162-14.643 6.162s-10.922-2.358-14.64-6.158l-124.42-124.42c-3.771-3.794-6.102-9.023-6.102-14.797s2.331-11.003 6.103-14.798l124.415-124.313c3.722-3.804 8.907-6.162 14.643-6.162s10.922 2.358 14.64 6.158zM726.323 861.594l-14.643-14.234c-3.804-3.722-6.162-8.907-6.162-14.643s2.358-10.922 6.158-14.64l95.236-95.236-95.232-95.232c-3.804-3.722-6.162-8.907-6.162-14.643s2.358-10.922 6.158-14.64l14.647-14.647c3.722-3.804 8.907-6.162 14.643-6.162s10.922 2.358 14.64 6.158l124.42 123.908c3.747 3.805 6.060 9.031 6.060 14.797s-2.313 10.992-6.063 14.799l-124.413 124.413c-3.722 3.804-8.907 6.162-14.643 6.162s-10.922-2.358-14.64-6.158z" />
<glyph unicode="&#xe944;" glyph-name="fi-finity" d="M795.341 659.149c-99.84 0-209.203-55.501-283.341-139.469-74.138 83.968-183.603 139.469-283.341 139.469-95.539 0-196.71-55.398-196.71-211.149s101.171-211.149 196.71-211.149c99.84 0 209.203 55.501 283.341 139.469 74.138-84.378 183.501-139.981 283.341-139.981 95.539 0.512 196.608 55.91 196.608 211.661s-101.069 211.149-196.608 211.149zM228.762 321.229c-72.602 0-109.466 42.598-109.466 126.771s36.762 126.771 109.466 126.771c80.282 0 173.466-52.122 230.707-126.771-57.242-74.65-150.426-126.771-230.707-126.771zM795.341 321.229c-80.282 0-173.466 52.122-230.707 126.771 57.139 74.65 150.426 126.771 230.707 126.771 72.602 0 109.363-42.701 109.363-126.771s-36.762-126.771-109.363-126.771z" />
<glyph unicode="&#xe945;" glyph-name="fi-first-aid" d="M300.646 679.731h62.976v52.736h294.707v-53.862h62.976v92.16c-0.055 13.86-11.16 25.109-24.959 25.395h-370.305c-14.082 0-25.498-11.416-25.498-25.498s0-0.922 0-1.331zM253.645 99.84h516.506v523.878h-516.506zM356.045 398.746c0.111 4.309 3.576 7.774 7.874 7.885h104.663v104.346c0 4.355 3.53 7.885 7.885 7.885h73.421c4.355 0 7.885-3.53 7.885-7.885v-104.755h104.755c4.355 0 7.885-3.53 7.885-7.885v-73.216c0-4.355-3.53-7.885-7.885-7.885h-104.755v-104.755c0-4.355-3.53-7.885-7.885-7.885h-73.421c-4.355 0-7.885 3.53-7.885 7.885v104.55h-104.755c-4.355 0-7.885 3.53-7.885 7.885zM141.722 623.718c-22.622 0-40.96-18.338-40.96-40.96 0-0.512 0-1.024 0-1.536v-439.706s0-0.717 0-1.024c0-22.622 18.338-40.96 40.96-40.96h61.44v524.186zM923.238 140.8v442.266c0 22.622-18.338 40.96-40.96 40.96h-61.44v-524.186h61.44c22.622 0 40.96 18.338 40.96 40.96s0 0 0 0z" />
<glyph unicode="&#xe946;" glyph-name="fi-flag" d="M868.045 714.854c-2.184-0.017-4.258-0.467-6.147-1.268l0.105 0.040c-33.392-17.805-73.027-28.262-115.105-28.262-0.034 0-0.067 0-0.101 0-0.057 0-0.13 0-0.203 0-76.81 0-145.512 34.716-191.27 89.314-41.641 39.502-97.574 63.551-159.123 63.551-59.315 0-113.413-22.335-154.344-59.053-8.485 18.776-27.030 31.419-48.529 31.419-29.634 0-53.658-24.023-53.658-53.658 0-0.179 0.001-0.357 0.003-0.535v-645.093c0-29.691 24.069-53.76 53.76-53.76s53.76 24.069 53.76 53.76v290.611c32.755 16.876 71.481 26.77 112.519 26.77 76.888 0 145.665-34.73 191.499-89.359 41.584-39.307 97.368-63.228 158.74-63.228 66.458 0 126.365 28.051 168.527 72.958 3.266 3.032 5.234 7.185 5.234 11.797v337.92c0 8.822-7.152 15.974-15.974 15.974z" />
<glyph unicode="&#xe947;" glyph-name="fi-folder" d="M880.64 713.318h-375.603c-20.48 24.269-40.96 49.766-46.49 57.549-5.365 11.051-16.502 18.534-29.386 18.534-0.001 0-0.002 0-0.003 0h-148.889c-10.238-0.017-19.369-4.742-25.347-12.124l-51.248-64.061h-60.314c-0.031 0-0.067 0-0.103 0-30.976 0-56.101-25.053-56.217-56.002v-494.501c0.058-31.004 25.205-56.115 56.218-56.115 0.036 0 0.072 0 0.108 0h737.274c30.968 0.058 56.057 25.147 56.115 56.11v494.495c-0.058 30.968-25.147 56.057-56.11 56.115z" />
<glyph unicode="&#xe948;" glyph-name="fi-gallery-slider" d="M778.24 731.75h-522.24c-19.888-0.174-35.943-16.336-35.943-36.248 0-0.072 0-0.145 0.001-0.217v-347.022c0-0.031 0-0.067 0-0.104 0-19.912 16.055-36.074 35.926-36.248h522.256c19.888 0.174 35.943 16.336 35.943 36.248 0 0.072 0 0.145-0.001 0.217v346.92c0 0.061 0.001 0.134 0.001 0.206 0 19.912-16.055 36.075-35.926 36.248zM516.915 164.25c-19.285 0-34.918 15.634-34.918 34.918s15.634 34.918 34.918 34.918c19.285 0 34.918-15.634 34.918-34.918s-15.634-34.918-34.918-34.918zM353.075 164.25c-19.285 0-34.918 15.634-34.918 34.918s15.634 34.918 34.918 34.918c19.285 0 34.918-15.634 34.918-34.918s-15.634-34.918-34.918-34.918zM680.755 164.25c-19.285 0-34.918 15.634-34.918 34.918s15.634 34.918 34.918 34.918c19.285 0 34.918-15.634 34.918-34.918s-15.634-34.918-34.918-34.918zM169.165 311.91h-87.245c-8.2 0-14.848 6.648-14.848 14.848v287.744c0 8.2 6.648 14.848 14.848 14.848h87.552zM854.835 311.91h87.245c8.2 0 14.848 6.648 14.848 14.848v287.744c0 8.2-6.648 14.848-14.848 14.848h-87.245z" />
<glyph unicode="&#xe949;" glyph-name="fi-google-analytics-graph" d="M970.957 644.71c0-45.243-36.677-81.92-81.92-81.92s-81.92 36.677-81.92 81.92c0 45.243 36.677 81.92 81.92 81.92s81.92-36.677 81.92-81.92zM406.118 468.992c0-45.243-36.677-81.92-81.92-81.92s-81.92 36.677-81.92 81.92c0 45.243 36.677 81.92 81.92 81.92s81.92-36.677 81.92-81.92zM715.776 297.37c0-45.243-36.677-81.92-81.92-81.92s-81.92 36.677-81.92 81.92c0 45.243 36.677 81.92 81.92 81.92s81.92-36.677 81.92-81.92zM557.978 380.416l-122.88 68.198c-4.746-25.006-17.19-46.539-34.731-62.592l122.795-68.275c4.746 25.006 17.19 46.539 34.731 62.592zM226.509 413.286l-163.84-184.32c-7.854-6.619-12.809-16.461-12.809-27.461 0-19.794 16.046-35.84 35.84-35.84 12.441 0 23.402 6.339 29.828 15.964l163.922 184.451c-22.789 10.008-41.162 26.566-53.162 47.277zM848.282 537.395c0-16.966-13.754-30.72-30.72-30.72s-30.72 13.754-30.72 30.72c0 16.966 13.754 30.72 30.72 30.72s30.72-13.754 30.72-30.72zM797.286 471.040c0-16.966-13.754-30.72-30.72-30.72s-30.72 13.754-30.72 30.72c0 16.966 13.754 30.72 30.72 30.72s30.72-13.754 30.72-30.72zM746.291 404.685c0-16.966-13.754-30.72-30.72-30.72s-30.72 13.754-30.72 30.72c0 16.966 13.754 30.72 30.72 30.72s30.72-13.754 30.72-30.72z" />
<glyph unicode="&#xe94a;" glyph-name="fi-graph-bar_1" d="M554.906 828.211c-7.522 0-13.619-6.098-13.619-13.619-0.023-0.291-0.036-0.63-0.036-0.973s0.013-0.682 0.039-1.017l-0.003 0.045v-321.946c0-7.522 6.098-13.619 13.619-13.619h321.946c0.291-0.023 0.63-0.037 0.973-0.037s0.682 0.013 1.017 0.040c7.477-0.003 13.575 6.095 13.575 13.616-1.777 185.909-152.011 336.143-337.751 337.919zM813.978 412.57c-0.058 7.478-6.133 13.517-13.619 13.517 0 0 0 0 0 0h-295.936c-7.478 0.058-13.517 6.133-13.517 13.619 0 0 0 0 0 0v295.014c0.023 0.291 0.036 0.63 0.036 0.973s-0.013 0.682-0.039 1.017c0.003 7.477-6.095 13.575-13.616 13.575h-4.506c-188.438 0-341.197-152.759-341.197-341.197s152.759-341.197 341.197-341.197c188.402 0 341.138 152.701 341.197 341.089 0 1.132 0 2.156 0 3.282s0 0 0 0z" />
<glyph unicode="&#xe94b;" glyph-name="fi-graph-bar" d="M471.552 343.962h-144.691c-8.54 0-15.462-6.923-15.462-15.462v-224.666c0-8.54 6.923-15.462 15.462-15.462h144.691c8.54 0 15.462 6.923 15.462 15.462v224.666c0 8.54-6.923 15.462-15.462 15.462zM697.139 807.629h-144.179c-8.54 0-15.462-6.923-15.462-15.462v-688.333c0-8.54 6.923-15.462 15.462-15.462h144.179c8.54 0 15.462 6.923 15.462 15.462v688.333c0 8.54-6.923 15.462-15.462 15.462zM923.853 598.528h-144.691c-8.54 0-15.462-6.923-15.462-15.462v-479.232c0-8.54 6.923-15.462 15.462-15.462h144.691c8.54 0 15.462 6.923 15.462 15.462v479.232c0 8.54-6.923 15.462-15.462 15.462zM244.838 598.528h-144.691c-8.54 0-15.462-6.923-15.462-15.462v-479.232c0-8.54 6.923-15.462 15.462-15.462h144.691c8.54 0 15.462 6.923 15.462 15.462v479.232c0 8.54-6.923 15.462-15.462 15.462z" />
<glyph unicode="&#xe94c;" glyph-name="fi-heart" d="M692.326 822.17c-0.155 0-0.339 0.001-0.523 0.001-73.060 0-138.034-34.621-179.411-88.353-42.164 53.672-107.103 88.251-180.118 88.251-0.212 0-0.423 0-0.634-0.001-125.994-0.463-228.047-102.444-228.626-228.399-0.615-135.428 65.126-215.71 117.862-279.915l11.264-13.824c62.464-77.005 256-215.040 264.090-220.979 4.379-3.159 9.853-5.052 15.77-5.052s11.391 1.893 15.85 5.107c8.112 5.782 201.648 144.022 264.009 220.924l11.264 13.824c52.736 64.205 118.477 144.486 117.862 279.859-0.522 126.054-102.597 228.093-228.615 228.557z" />
<glyph unicode="&#xe94d;" glyph-name="fi-help-support" d="M918.221 604.058c-6.068 15.508-20.896 26.292-38.243 26.292-5.093 0-9.969-0.93-14.467-2.628l-11.904-4.412c-37.485 71.751-94.621 128.854-164.276 165.286l2.382 13.197c1.605 4.216 2.535 9.092 2.535 14.185 0 17.347-10.784 32.176-26.013 38.147-46.58 18.412-100.218 29.031-156.336 29.031s-109.756-10.619-159.014-29.958c-12.551-5.045-23.335-19.874-23.335-37.221 0-5.093 0.93-9.969 2.628-14.467l4.412-11.904c-71.71-37.5-128.777-94.633-165.184-164.275l-13.197 2.38c-4.216 1.605-9.092 2.535-14.185 2.535-17.347 0-32.176-10.784-38.147-26.013-18.412-46.58-29.031-100.218-29.031-156.336s10.619-109.756 29.958-159.014c5.045-12.551 19.874-23.335 37.221-23.335 5.093 0 9.969 0.93 14.467 2.628l11.904 4.412c37.506-71.706 94.637-128.772 164.275-165.184l-2.381-13.197c-1.605-4.216-2.535-9.092-2.535-14.185 0-17.347 10.784-32.176 26.013-38.147 46.58-18.412 100.218-29.031 156.336-29.031s109.756 10.619 159.014 29.958c12.551 5.045 23.335 19.874 23.335 37.221 0 5.093-0.93 9.969-2.628 14.467l-4.412 11.904c71.71 37.5 128.777 94.633 165.184 164.275l13.197-2.38c4.216-1.605 9.092-2.535 14.185-2.535 17.347 0 32.176 10.784 38.147 26.013 18.412 46.58 29.031 100.218 29.031 156.336s-10.619 109.756-29.958 159.014zM336.179 377.754l-192.205-71.066c-16.582 41.927-26.196 90.497-26.196 141.312s9.614 99.385 27.122 143.99l8.7-6.262 182.579-67.584c-8.601-20.776-13.596-44.902-13.596-70.195s4.995-49.419 14.051-71.447zM512 842.24c0.048 0 0.105 0 0.162 0 50.761 0 99.275-9.621 143.818-27.139l-6.252-8.701-67.584-182.579c-20.777 8.596-44.903 13.588-70.195 13.588s-49.419-4.992-71.448-14.043l-66.331 183.035-3.584 9.626c41.875 16.593 90.389 26.214 141.15 26.214 0.093 0 0.186 0 0.279 0zM512 53.76c-0.031 0-0.068 0-0.105 0-50.781 0-99.314 9.621-143.877 27.139l73.838 191.28c20.777-8.596 44.903-13.588 70.195-13.588s49.419 4.992 71.448 14.043l69.813-192.66c-41.893-16.594-90.426-26.214-141.207-26.214-0.037 0-0.074 0-0.111 0zM649.83 502.989c6.744-16.274 10.661-35.174 10.661-54.989s-3.916-38.715-11.017-55.968c-1.5-3.528-2.578-8.761-2.578-14.246 0-17.536 11.020-32.498 26.512-38.339l4.89-1.834c-14.994-22.303-33.608-40.916-55.193-55.455l-2.458 4.153c-5.934 15.774-20.897 26.794-38.432 26.794-5.485 0-10.718-1.078-15.499-3.034-16.001-6.645-34.901-10.562-54.715-10.562s-38.715 3.916-55.968 11.017c-3.528 1.5-8.761 2.578-14.246 2.578-17.536 0-32.498-11.020-38.339-26.512l-1.834-4.89c-22.301 14.996-40.914 33.609-55.455 55.193l4.152 2.458c15.774 5.934 26.794 20.897 26.794 38.432 0 5.485-1.078 10.718-3.034 15.499-6.645 16.001-10.562 34.901-10.562 54.715s3.916 38.715 11.017 55.968c1.5 3.528 2.578 8.761 2.578 14.246 0 17.536-11.020 32.498-26.512 38.339l-4.89 1.834c14.994 22.303 33.608 40.916 55.193 55.455l2.458-4.153c5.934-15.774 20.897-26.794 38.432-26.794 5.485 0 10.718 1.078 15.499 3.034 16.001 6.645 34.901 10.562 54.715 10.562s38.715-3.916 55.968-11.017c3.528-1.5 8.761-2.578 14.246-2.578 17.536 0 32.498 11.020 38.339 26.512l1.834 4.89c22.304-14.992 40.918-33.606 55.455-55.193l-4.153-2.458c-15.774-5.934-26.794-20.897-26.794-38.432 0-5.485 1.078-10.718 3.034-15.499zM880.026 306.688l-9.626 3.482-182.579 67.584c8.601 20.776 13.596 44.902 13.596 70.195s-4.995 49.419-14.051 71.447l192.66 70.019c16.582-41.927 26.196-90.497 26.196-141.312s-9.614-99.385-27.122-143.99z" />
<glyph unicode="&#xe94e;" glyph-name="fi-home" d="M855.142 572.416l-332.902 257.638c-4.325 3.42-9.857 5.486-15.872 5.486s-11.547-2.066-15.926-5.527l-321.892-257.802c-5.892-4.75-9.629-11.967-9.629-20.056 0-0.149 0.001-0.298 0.004-0.446v-465.898c0.172-13.935 11.452-25.179 25.384-25.293h191.499c14.195 0 25.702 11.507 25.702 25.702v285.286h220.774v-285.286c0-0.030 0-0.066 0-0.102 0-14.138 11.462-25.6 25.6-25.6 0 0 0 0 0 0h191.795c14.195 0 25.702 11.507 25.702 25.702v465.92c0 8.346-3.994 15.76-10.176 20.433z" />
<glyph unicode="&#xe94f;" glyph-name="fi-icon-defender" d="M820.224 803.635c-2.15 0-159.13 16.282-248.218 25.293v-267.162l-60.006-26.624-59.699 26.419v267.366c-88.986-9.011-245.76-24.883-248.218-25.293-43.661-9.453-75.893-47.753-75.893-93.581 0-5.429 0.452-10.752 1.321-15.934l65.868-429.52c4.956-31.597 23.761-57.99 49.891-73.158l266.73-124.371 266.24 124.109c26.795 15.47 45.704 42.039 50.513 73.258l66.018 430.652c0.753 4.508 1.183 9.703 1.183 14.998 0 45.769-32.15 84.029-75.098 93.43zM732.57 275.046l-220.57-98.202-220.57 98.304-45.67 281.702 266.24-117.76 266.24 117.76z" />
<glyph unicode="&#xe950;" glyph-name="fi-icon-devman-logo" d="M512 832c-212.077 0-384-171.923-384-384s171.923-384 384-384c212.077 0 384 171.923 384 384s-171.923 384-384 384zM763.187 371.2c0.002-0.253 0.003-0.552 0.003-0.852 0-26.508-9.817-50.723-26.014-69.208-15.469-17.961-38.329-29.391-63.864-29.575-49.696 0-90.042 44.851-90.042 99.942v152.883c0.163 0.905 0.256 1.946 0.256 3.009 0 9.84-7.977 17.818-17.818 17.818s-17.818-7.977-17.818-17.818c0-1.063 0.093-2.105 0.272-3.117l-0.016-152.776c0.005-0.366 0.007-0.798 0.007-1.231 0-26.486-9.82-50.678-26.017-69.134-15.47-17.962-38.331-29.393-63.866-29.577-49.696 0-90.042 44.851-90.042 99.942v152.883c0.038 0.457 0.060 0.988 0.060 1.525 0 10.138-7.713 18.474-17.591 19.461-10.041-0.987-17.754-9.323-17.754-19.461 0-0.537 0.022-1.068 0.064-1.594l-0.004-292.59-72.294-56.32v348.979c-0.003 0.305-0.005 0.666-0.005 1.027 0 26.601 9.857 50.899 26.118 69.442 15.484 17.94 38.336 29.363 63.86 29.576 49.701 0 90.047-44.851 90.047-99.942v-152.986c-0.163-0.905-0.256-1.946-0.256-3.009 0-9.84 7.977-17.818 17.818-17.818s17.818 7.977 17.818 17.818c0 1.063-0.093 2.105-0.272 3.117l0.016 152.776c0 55.091 40.346 99.942 90.010 99.942s89.498-44.851 89.498-99.942v-152.883c-0.163-0.905-0.256-1.946-0.256-3.009 0-9.84 7.977-17.818 17.818-17.818s17.818 7.977 17.818 17.818c0 1.063-0.093 2.105-0.272 3.117l0.016 292.654 72.294 56.218z" />
<glyph unicode="&#xe951;" glyph-name="fi-icon-devman" d="M602.829 656.077c-24.166 56.832-90.829 56.832-90.829 56.832s-66.662 0-90.829-56.934c-27.853-65.536-80.998-284.365-80.998-284.365s41.472-56.73 171.827-56.73 171.827 56.934 171.827 56.934-53.146 218.829-80.998 284.365zM614.4 577.024l-55.091-32.358-34.918 32.358zM506.266 577.024l-36.659-32.358-53.35 32.358zM512 353.792c-56.832-61.44-139.469 14.234-139.469 14.234 8.506 25.244 26.149 45.483 48.902 57.186-48.288 43.268-28.422 109.521-28.422 109.521l59.494-33.178 59.494 31.949 59.494-31.949 59.494 33.178s19.866-66.253-28.979-109.363c23.31-11.963 40.953-32.202 49.254-56.747s-82.431-76.68-139.263-14.831zM654.234 325.12l-142.234-85.197-142.234 85.197-113.766-56.73s27.238-85.299 256-85.299 256 85.299 256 85.299zM512 476.57l-31.027-3.482 31.027-38.4 31.13 38.4-31.13 3.482z" />
<glyph unicode="&#xe952;" glyph-name="fi-icon-hub" d="M584.294 520.294h-144.486l-0.102 96.358-72.294 48.23-72.294-48.23v-337.306l72.294-48.23 72.704 47.002-0.102 97.587h144.282v-96.358l72.294-48.23 72.294 48.23v337.306l-72.294 48.23-72.294-48.23v-96.358zM680.653 857.6h-337.306l-240.947-144.589v-529.203l240.947-145.408h337.306l240.947 144.589v530.022zM825.242 237.568l-171.315-102.4h-283.75l-171.418 103.117v419.84l171.213 102.4h283.955l171.315-102.4z" />
<glyph unicode="&#xe953;" glyph-name="fi-icon-hummingbird" d="M884.941 540.16c-54.272-2.867-121.139-5.632-178.893-6.144l143.872 95.949c14.356-25.809 26.351-55.698 34.442-87.154zM536.986 832c0.056 0 0.123 0 0.189 0 142.371 0 266.631-77.542 332.851-192.696-46.116-9.339-169.405-27.771-300.682-35.963-25.498-1.536-42.086-27.136-51.2-46.899 0 0-23.347 146.944-183.706 109.056-31.437 14.131-61.44 25.6-87.142 34.714 70.614 80.937 173.939 131.789 289.141 131.789 0.193 0 0.385 0 0.578 0zM152.986 448c0 0.165 0 0.361 0 0.557 0 90.984 31.779 174.546 84.842 240.192 33.533-14.65 65.687-29.601 78.487-40.865 0 0 29.594-58.573 50.176-102.4s34.918-68.403 40.96-120.832 49.357-138.342 126.157-166.502c-26.201-36.002-49.562-76.997-68.171-120.508 20.16-29.366 43.306-52.057 68.235-72.667-210.034 0.565-380.573 171.861-380.686 383.014zM558.49 66.765c0 14.336 0 27.238 0.922 39.014 2.194 34.707 9.518 67.067 21.234 97.234 14.58 37.592 23.462 83.639 23.462 131.76 0 9.070-0.316 18.066-0.936 26.978-0.914 11.382-2.984 23.004-6.077 34.201l293.786 112.053c2.984-17.99 4.689-38.719 4.689-59.847 0-195.6-146.128-357.069-335.171-381.195z" />
<glyph unicode="&#xe954;" glyph-name="fi-icon-hustle" d="M512 832c-212.077 0-384-171.923-384-384s171.923-384 384-384c212.077 0 384 171.923 384 384s-171.923 384-384 384zM775.168 426.496c-2.97-29.696-14.643-85.504-58.368-119.501-26.166-20.227-59.312-32.59-95.326-33.074-0.625-0.010-1.232-0.015-1.84-0.015-14.496 0-28.331 2.826-40.987 7.956-25.38 10.695-50.468 38.138-49.035 69.677v1.434l12.698 69.837c2.020 8.627 3.244 18.573 3.378 28.782 0.001 17.81-10.239 19.858-17.407 19.858-21.299 0-49.664-27.853-58.266-72.806l-17.306-82.944h-5.837c-0.286-0.004-0.624-0.007-0.963-0.007-21.317 0-40.373 9.678-53.014 24.88-15.041 18.135-18.011 44.144-9.512 82.032l47.718 192-9.523-5.018-6.144-3.379c-57.706-34.113-95.8-96.013-95.8-166.81 0-106.645 86.44-193.1 193.078-193.126 0.244-0.001 0.53-0.002 0.816-0.002 18.487 0 36.362 2.618 53.275 7.504l4.893 1.406 27.136-67.174-7.475-2.253c-23.492-7.547-50.518-11.897-78.56-11.897-146.531 0-265.318 118.787-265.318 265.318 0 99.617 54.9 186.411 136.095 231.777 18.87 10.304 39.173 18.248 60.541 23.474l4.599 1.075 5.427 26.317h85.402l-37.786-191.898-2.253-11.264 9.626 6.349c15.743 10.773 35.197 17.203 56.154 17.203 0.022 0 0.045 0 0.067 0 41.776 0 67.683-27.443 67.683-71.68-0.405-15.887-2.027-31.101-4.781-45.916l-10.989-58.532c-0.236-1.249-0.371-2.685-0.371-4.153 0-5.173 1.675-9.955 4.513-13.833 3.316-3.098 7.858-5.042 12.854-5.042 0.65 0 1.292 0.033 1.926 0.097 47.946-0.007 64.74 55.597 66.992 88.365 0.495 4.955 0.777 10.709 0.777 16.53 0 40.599-13.736 77.989-36.815 107.777-31.649 40.557-84.589 64.314-99.437 70.253l14.643 71.68c52.184-18.105 96.468-47.61 131.589-85.694 32.271-35.335 54.030-80.368 60.391-130.211 1.332-10.358 2.022-20.969 2.022-31.74 0-8.496-0.429-16.891-1.267-25.166z" />
<glyph unicode="&#xe955;" glyph-name="fi-icon-pulse" d="M891.494 746.598c-43.196 42.331-102.413 68.455-167.731 68.455s-124.535-26.124-167.771-68.494c-33.24-33.855-37.336-44.402-44.197-44.402s-11.059 10.24-44.339 44.442c-43.169 42.349-102.372 68.487-167.68 68.487s-124.51-26.138-167.718-68.524c-75.431-75.739-72.769-181.006-32.321-275.009l52.122 25.293 30.72 49.050c8.49 13.979 23.632 23.176 40.923 23.176 0.625 0 1.248-0.012 1.867-0.036 17.9-0.635 33.357-10.886 41.357-25.746l35.149-66.616 77.005 138.342c8.509 15.18 24.496 25.272 42.84 25.272 21.075 0 39.038-13.319 45.933-31.998l68.41-188.755 30.72 53.043c8.696 14.623 24.416 24.269 42.388 24.269 0.002 0 0.004 0 0.006 0h103.936l100.864-48.845-100.864-48.947h-75.776l-69.427-119.091c-8.647-14.619-24.332-24.269-42.271-24.269-0.007 0-0.014 0-0.022 0h-4.402c-19.24 1.786-35.127 14.448-41.566 31.712l-67.388 186.093-68.198-122.88c-8.186-15.285-24.047-25.506-42.295-25.506-0.323 0-0.644 0.003-0.966 0.010-18.428 0.146-34.445 10.528-42.627 25.748l-37.709 71.224c-8.8-13.867-24.073-22.938-41.465-22.938-0.003 0-0.005 0-0.008 0l-52.326 20.48c1.946-3.072 3.482-6.349 5.427-9.421 79.77-124.518 310.374-329.318 379.904-329.318s300.032 204.8 379.699 328.602c68.403 106.291 92.774 244.019 0 337.101z" />
<glyph unicode="&#xe956;" glyph-name="fi-icon-smart-crawl" d="M151.757 316.006c55.25-148.293 195.635-252.005 360.243-252.005s304.993 103.711 359.376 249.355zM872.243 579.994c-55.25 148.293-195.635 252.005-360.243 252.005s-304.993-103.711-359.376-249.355zM129.843 484.045c-1.126-11.878-1.843-23.859-1.843-36.045s0.717-24.166 1.843-35.942h764.314c1.126 11.878 1.843 23.859 1.843 35.942s-0.717 24.166-1.843 36.045z" />
<glyph unicode="&#xe957;" glyph-name="fi-icon-smush" d="M844.8 638.976v0l-332.083-574.976c211.7 0.201 383.239 171.863 383.239 383.59 0 70.451-18.992 136.466-52.137 193.204zM349.798 583.475l162.202-280.781 162.099 280.781h-324.301zM226.509 703.386h571.597c-70.434 78.991-172.489 128.493-286.106 128.493s-215.672-49.502-285.774-128.114zM179.405 638.669v0c-32.1-54.868-51.053-120.811-51.053-191.181 0-211.563 171.318-383.113 382.793-383.487z" />
<glyph unicode="&#xe958;" glyph-name="fi-icon-snapshot" d="M479.642 692.531l133.325-24.474 54.989-36.966-12.288 154.010-63.488 11.674-112.538-104.243zM256.205 391.885l3.277 96.768-69.632-64.614 66.355-32.154zM760.627 395.776l118.477 56.934-15.77 195.174-129.741 86.835zM766.874 317.030v0c-45.261-22.63-109.67-53.35-179.098-86.221l141.517-68.71c87.45 41.779 166.912 80.384 166.707 82.739s-4.813 58.778-10.24 129.126zM263.066 592.384v0.102l238.592 220.979-150.733 27.75-208.998-193.331-5.837-173.056 126.976 117.555zM132.506 369.971l-4.506-134.042 374.784-181.146s64.614 30.72 141.21 66.662z" />
<glyph unicode="&#xe959;" glyph-name="fi-icon-upfront" d="M170.701 694.374l85.299-147.763 170.598 295.526-255.898-147.763zM412.467 620.442l-99.533-172.442 98.918-171.315s0-0.819 0-1.024h202.547l99.123 168.141-101.786 176.333zM810.701 718.95l-256 147.866-85.402-147.866h341.402zM128 571.187v-295.526h170.701l-170.701 295.526zM725.402 620.442l170.598-295.526v295.526h-170.598zM853.299 201.728l-83.149 144.077-171.52-291.123 254.669 147.046zM469.606 29.696l86.835 147.456h-343.142l256-147.866s0 0 0 0z" />
<glyph unicode="&#xe95a;" glyph-name="fi-icon-uptime" d="M229.478 497.254l30.72 49.357c8.547 14.057 23.78 23.302 41.173 23.302 0.826 0 1.646-0.021 2.462-0.062 18.014-0.628 33.59-10.965 41.638-25.947l35.457-67.028 77.107 139.264c8.567 15.258 24.645 25.398 43.091 25.398 21.178 0 39.234-13.366 46.193-32.123l68.924-189.986 30.72 53.35c8.73 14.72 24.525 24.441 42.594 24.474h104.965l101.478-49.254v221.696l-384 221.696-384-221.696v-221.696zM718.234 398.746l-69.837-119.808c-8.715-14.735-24.519-24.463-42.597-24.474h-4.405c-19.339 1.82-35.3 14.556-41.77 31.915l-68.105 187.323-68.608-124.109c-8.255-15.236-24.123-25.409-42.367-25.409-0.405 0-0.81 0.005-1.213 0.015-18.555 0.14-34.693 10.608-42.922 25.95l-38.017 71.943c-8.836-13.929-24.175-23.040-41.642-23.040-0.012 0-0.024 0-0.036 0l-128.715 48.947v-221.696l384-221.696 384 221.696v221.696l-101.478-49.254z" />
<glyph unicode="&#xe95b;" glyph-name="fi-indent-less" d="M831.795 804.966h-639.59c-19.285 0-34.918-15.634-34.918-34.918v-32.154c0-19.285 15.634-34.918 34.918-34.918h639.59c19.285 0 34.918 15.634 34.918 34.918v32.154c0 19.285-15.634 34.918-34.918 34.918zM831.795 192.922h-639.59c-19.285 0-34.918-15.634-34.918-34.918v-32.154c0-19.285 15.634-34.918 34.918-34.918h639.59c19.285 0 34.918 15.634 34.918 34.918v32.256c0 19.285-15.634 34.918-34.918 34.918zM866.714 362.086c-0.116 19.197-15.705 34.714-34.918 34.714 0 0 0 0-0.001 0h-397.517c0 0 0 0-0.001 0-19.213 0-34.802-15.517-34.918-34.702v-32.165c0-19.285 15.634-34.918 34.918-34.918h397.517c19.285 0 34.918 15.634 34.918 34.918v0 32.154zM866.714 564.941c0 19.285-15.634 34.918-34.918 34.918h-397.517c-19.285 0-34.918-15.634-34.918-34.918v-32.154c0-19.285 15.634-34.918 34.918-34.918h397.517c19.285 0 34.918 15.634 34.918 34.918v0 32.154zM157.286 448c0.007-2.365 1.419-4.399 3.445-5.31l0.037-0.015 126.771-73.216c1.076-1.233 2.65-2.008 4.406-2.008 3.224 0 5.837 2.613 5.837 5.837 0 0.058-0.001 0.116-0.003 0.173v-0.008 149.094c0.004 0.081 0.006 0.176 0.006 0.272 0 3.224-2.613 5.837-5.837 5.837-1.757 0-3.333-0.777-4.404-2.006l-127.392-73.53c-1.753-0.978-2.928-2.805-2.97-4.909z" />
<glyph unicode="&#xe95c;" glyph-name="fi-indent-more" d="M831.795 804.966h-639.59c-19.285 0-34.918-15.634-34.918-34.918v-32.154c0-19.285 15.634-34.918 34.918-34.918h639.59c19.285 0 34.918 15.634 34.918 34.918v32.154c0 19.285-15.634 34.918-34.918 34.918zM831.795 193.024h-639.59c-19.285 0-34.918-15.634-34.918-34.918v-32.154c0-19.285 15.634-34.918 34.918-34.918h639.59c19.285 0 34.918 15.634 34.918 34.918v32.154c0 19.285-15.634 34.918-34.918 34.918zM866.714 362.086c-0.116 19.197-15.705 34.714-34.918 34.714 0 0 0 0-0.001 0h-397.517c0 0 0 0-0.001 0-19.213 0-34.802-15.517-34.918-34.702v-32.165c0-19.285 15.634-34.918 34.918-34.918h397.517c19.285 0 34.918 15.634 34.918 34.918v0 32.154zM866.714 564.941c0 19.285-15.634 34.918-34.918 34.918h-397.517c-19.285 0-34.918-15.634-34.918-34.918v-32.154c0-19.285 15.634-34.918 34.918-34.918h397.517c19.285 0 34.918 15.634 34.918 34.918v0 32.154zM163.123 367.616c0.012 0 0.026 0 0.040 0 1.627 0 3.099 0.666 4.158 1.74l127.181 73.524c1.502 1.049 2.472 2.769 2.472 4.716 0 0.142-0.005 0.283-0.015 0.423-0.005 2.346-1.418 4.38-3.444 5.291l-0.037 0.015-126.259 73.318c-1.059 1.352-2.692 2.212-4.525 2.212-3.167 0-5.734-2.567-5.734-5.734 0-0.166 0.007-0.33 0.021-0.492l-0.001 0.021v-149.197c0-3.224 2.613-5.837 5.837-5.837z" />
<glyph unicode="&#xe95d;" glyph-name="fi-info" d="M512 832c-212.077 0-384-171.923-384-384s171.923-384 384-384c212.077 0 384 171.923 384 384s-171.923 384-384 384zM551.219 234.394c0-7.352-5.96-13.312-13.312-13.312h-51.2c-0.030 0-0.066 0-0.102 0-7.352 0-13.312 5.96-13.312 13.312 0 0 0 0 0 0v248.013c0 0 0 0 0 0 0 7.352 5.96 13.312 13.312 13.312 0.036 0 0.072 0 0.108 0h51.194c7.352 0 13.312-5.96 13.312-13.312zM512 551.117c-25.612 0.232-46.285 21.048-46.285 46.693 0 0.073 0 0.145 0 0.218 0 25.721 20.86 46.581 46.592 46.581s46.592-20.86 46.592-46.592c0-25.902-20.997-46.899-46.899-46.899z" />
<glyph unicode="&#xe95e;" glyph-name="fi-italic" d="M620.237 711.168c0 0.001 0 0.001 0 0.002 0 14.596-11.745 26.449-26.3 26.622h-47.428c-14.173-0.035-25.741-11.138-26.519-25.121l-0.003-0.069-115.507-522.24v-0.717c-0.254-1.37-0.399-2.947-0.399-4.558 0-13.898 10.815-25.27 24.488-26.158l0.078-0.004h49.050c13.267 0.124 24.205 9.932 26.094 22.69l0.018 0.145 115.405 522.24c0.657 2.102 1.064 4.524 1.126 7.033z" />
<glyph unicode="&#xe95f;" glyph-name="fi-key" d="M869.069 560.64h-395.776c-39.677 67.813-112.152 112.64-195.098 112.64-124.419 0-225.28-100.861-225.28-225.28s100.861-225.28 225.28-225.28c82.946 0 155.422 44.827 194.523 111.577l43.072 1.063c2.12 0.002 4.039 0.863 5.427 2.253l79.258 79.667c1.389 1.388 3.308 2.246 5.427 2.246s4.038-0.858 5.427-2.246l55.706-55.706c1.389-1.388 3.308-2.246 5.427-2.246s4.038 0.858 5.427 2.246l35.226 35.226c1.389 1.388 3.308 2.246 5.427 2.246s4.038-0.858 5.427-2.246l40.346-40.96c1.389-1.388 3.308-2.246 5.427-2.246s4.038 0.858 5.427 2.246l40.346 40.96c1.389 1.388 3.308 2.246 5.427 2.246s4.038-0.858 5.427-2.246l32.666-32.563c1.352-1.214 3.15-1.956 5.12-1.956s3.768 0.742 5.127 1.962l98.911 92.87c1.482 1.403 2.404 3.384 2.404 5.581s-0.922 4.178-2.4 5.577l-94.314 90.935c-1.378 1.329-3.256 2.149-5.325 2.15zM175.821 396.8c-28.277 0-51.2 22.923-51.2 51.2s22.923 51.2 51.2 51.2c28.277 0 51.2-22.923 51.2-51.2s-22.923-51.2-51.2-51.2z" />
<glyph unicode="&#xe960;" glyph-name="fi-laptop" d="M143.36 266.752h737.28c28.277 0 51.2 22.923 51.2 51.2v451.277c0 28.277-22.923 51.2-51.2 51.2h-737.28c-28.277 0-51.2-22.923-51.2-51.2v-451.482c0-28.277 22.923-51.2 51.2-51.2zM194.56 718.029h634.88v-349.389h-634.88zM976.077 215.654h-928.256c0 0-0.001 0-0.001 0-12.951 0-23.45-10.499-23.45-23.45 0-0.072 0-0.144 0.001-0.216v-56.923c0.112-6.075 2.508-11.569 6.361-15.68l33.268-36.032c4.308-4.603 10.42-7.473 17.203-7.475h859.239c6.526 0.008 12.429 2.669 16.69 6.962l36.149 35.944c4.173 4.241 6.751 10.062 6.758 16.485v56.731c-0.058 12.928-10.522 23.392-23.444 23.45zM601.19 133.53c0.013-0.13 0.020-0.282 0.020-0.435 0-2.485-1.883-4.53-4.299-4.786l-169.391-0.002c-2.438 0.258-4.32 2.303-4.32 4.788 0 0.153 0.007 0.305 0.021 0.454l-0.001 23.738c-0.007 0.1-0.012 0.216-0.012 0.333 0 2.482 1.878 4.525 4.291 4.785l168.981 0.002c2.434-0.262 4.312-2.305 4.312-4.787 0-0.117-0.004-0.234-0.012-0.349z" />
<glyph unicode="&#xe961;" glyph-name="fi-layers" d="M928.87 577.126l-373.453-216.986c-12.039-7.092-26.522-11.281-41.984-11.281s-29.945 4.189-42.377 11.495l-375.927 216.977c-5.998 3.644-9.943 10.142-9.943 17.562s3.945 13.918 9.853 17.51l363.303 211.098c14.961 8.808 32.959 14.011 52.173 14.011s37.211-5.203 52.662-14.277l365.693-211.395c5.998-3.644 9.943-10.142 9.943-17.562s-3.945-13.918-9.853-17.51zM928.87 321.843l-152.474 88.064-220.979-128.41c-12.039-7.092-26.522-11.281-41.984-11.281s-29.945 4.189-42.377 11.495l-223.453 128.913-152.474-88.576c-5.998-3.644-9.943-10.142-9.943-17.562s3.945-13.918 9.853-17.51l376.001-217.856c12.039-7.092 26.522-11.281 41.984-11.281s29.945 4.189 42.377 11.495l373.469 217.386c5.998 3.644 9.943 10.142 9.943 17.562s-3.945 13.918-9.853 17.51z" />
<glyph unicode="&#xe962;" glyph-name="fi-layout-grid" d="M310.067 780.288h-107.11c-12.838 0-23.245-10.407-23.245-23.245v-362.598c0-12.838 10.407-23.245 23.245-23.245h107.11c12.838 0 23.245 10.407 23.245 23.245v362.598c0 12.838-10.407 23.245-23.245 23.245zM565.555 780.288h-107.11c-12.838 0-23.245-10.407-23.245-23.245v-107.11c0-12.838 10.407-23.245 23.245-23.245h107.11c12.838 0 23.245 10.407 23.245 23.245v107.11c0 12.838-10.407 23.245-23.245 23.245zM844.288 757.043v0c0 12.838-10.407 23.245-23.245 23.245h-107.11c-12.838 0-23.245-10.407-23.245-23.245v0-362.598c0-12.838 10.407-23.245 23.245-23.245h107.11c12.838 0 23.245 10.407 23.245 23.245v362.598zM565.555 524.698h-107.11c-12.838 0-23.245-10.407-23.245-23.245v-362.496c0-12.838 10.407-23.245 23.245-23.245h107.11c12.838 0 23.245 10.407 23.245 23.245v362.496c0 12.838-10.407 23.245-23.245 23.245zM310.067 269.312h-107.11c-12.838 0-23.245-10.407-23.245-23.245v-107.11c0-12.838 10.407-23.245 23.245-23.245h107.11c12.838 0 23.245 10.407 23.245 23.245v107.11c0 12.838-10.407 23.245-23.245 23.245zM821.043 269.312h-107.11c-12.838 0-23.245-10.407-23.245-23.245v-107.11c0-12.838 10.407-23.245 23.245-23.245h107.11c12.838 0 23.245 10.407 23.245 23.245v107.11c0 12.838-10.407 23.245-23.245 23.245z" />
<glyph unicode="&#xe963;" glyph-name="fi-layout" d="M843.571 652.8h-663.142v86.938c0 22.622 18.338 40.96 40.96 40.96h581.222c22.622 0 40.96-18.338 40.96-40.96zM334.029 115.302h-112.64c-22.622 0-40.96 18.338-40.96 40.96v453.427h153.6zM374.989 609.69h468.685v-245.862h-468.685v245.862zM802.611 115.302h-427.622v204.8h468.582v-163.84c0-22.622-18.338-40.96-40.96-40.96z" />
<glyph unicode="&#xe964;" glyph-name="fi-lightbulb" d="M812.339 591.36c-0.015 165.862-134.475 300.313-300.339 300.313-165.873 0-300.339-134.466-300.339-300.339 0-89.553 39.195-169.952 101.366-224.978 14.721-12.766 23.821-31.043 23.972-51.449v-38.119c0-20.077 16.275-36.352 36.352-36.352h277.402c20.077 0 36.352 16.275 36.352 36.352v38.81c0.067 20.409 9.102 38.694 23.368 51.131 62.56 55.161 101.765 135.387 101.765 224.769 0 0.204 0 0.409-0.001 0.613zM671.437 124.416h-318.874c-8.653 0-15.667 7.014-15.667 15.667v34.099c0 8.653 7.014 15.667 15.667 15.667h318.874c8.653 0 15.667-7.014 15.667-15.667v-34.099c0-8.653-7.014-15.667-15.667-15.667zM615.219 4.198h-206.438c-8.653 0-15.667 7.014-15.667 15.667v34.099c0.284 8.43 7.186 15.155 15.659 15.155 0.003 0 0.006 0 0.009 0h206.438c8.653 0 15.667-7.014 15.667-15.667v-34.099c0-8.653-7.014-15.667-15.667-15.667z" />
<glyph unicode="&#xe965;" glyph-name="fi-like" d="M179.302 198.861c-0.037 0.536-0.058 1.161-0.058 1.792s0.021 1.256 0.063 1.876l-0.005 275.577c0 14.365 11.645 26.010 26.010 26.010h50.688c13.929-0.397 25.082-11.73 25.19-25.692v-281.611c-1.076-13.162-11.885-23.473-25.163-23.756h-51.228c-14.365 0-26.010 11.645-26.010 26.010zM332.902 155.648v373.658c0 0.001 0 0.003 0 0.005 0 14.185 11.355 25.717 25.471 26.004h103.553c1.586 2.501 3.414 4.655 5.501 6.528l101.2 175.232c10.202 18.090 29.293 30.106 51.19 30.106 0.004 0 0.007 0 0.011 0 32.512-0.231 58.778-26.641 58.778-59.186 0-0.144-0.001-0.289-0.002-0.433l0.615 0.022v-152.371h139.981c13.929-0.397 25.082-11.73 25.19-25.692v-288.472c0-3.594-1.447-6.85-3.79-9.217l-99.941-99.941c-2.185-1.83-5.026-2.942-8.127-2.942-0.746 0-1.478 0.064-2.188 0.188l-371.534-0.011c-13.811 0.038-25.078 10.876-25.802 24.511l-0.003 0.065v0.819s0 0 0 0.512 0 0 0 0.512zM814.285 240.947v0 0z" />
<glyph unicode="&#xe966;" glyph-name="fi-link" d="M805.478 741.478c-37.039 36.926-88.147 59.758-144.589 59.758-52.723 0-100.792-19.922-137.091-52.65l0.182 0.162-103.526-103.117c-17.708-17.731-32.164-38.715-42.394-61.978-21.84-10.61-40.174-22.545-56.192-36.998l0.18 0.159-103.424-103.424c-31.372-35.798-50.509-83.001-50.509-134.675 0-113.108 91.692-204.8 204.8-204.8 51.724 0 98.97 19.175 135.017 50.804l103.191 103.224c14.295 15.838 26.23 34.172 35.023 54.199 25.038 12.055 45.987 26.509 63.691 44.208l103.423 103.423c32.565 36.117 52.488 84.186 52.488 136.909 0 56.441-22.832 107.55-59.763 144.594zM437.862 227.942v0c-18.672-18.672-44.467-30.221-72.96-30.221-56.985 0-103.181 46.196-103.181 103.181 0 28.493 11.549 54.288 30.221 72.96l75.469 75.469c18.945-71.663 74.257-126.975 144.502-145.6zM493.875 429.875c-17.104 17.052-28.21 40.111-29.885 65.743 51.612-2.954 92.675-44.016 95.918-95.348-25.922 1.395-48.981 12.501-66.030 29.602zM738.304 528.486l-81.818-81.818c-18.907 71.651-74.186 126.963-144.4 145.6l74.051 75.789 6.349 6.349c18.171 16.344 42.336 26.34 68.836 26.34 56.95 0 103.117-46.167 103.117-103.117 0-26.5-9.996-50.665-26.423-68.93z" />
<glyph unicode="&#xe967;" glyph-name="fi-list-bullet" d="M908.493 753.869h-639.59c-19.285 0-34.918-15.634-34.918-34.918v-32.154c0-19.285 15.634-34.918 34.918-34.918h639.59c19.285 0 34.918 15.634 34.918 34.918v32.154c0 19.285-15.634 34.918-34.918 34.918zM908.493 499.2h-639.59c-19.285 0-34.918-15.634-34.918-34.918v-32.154c-0.002-0.122-0.002-0.266-0.002-0.41 0-19.285 15.634-34.918 34.918-34.918 0.001 0 0.002 0 0.003 0h639.59c19.285 0 34.918 15.634 34.918 34.918v32.358c0 0.061 0.001 0.133 0.001 0.205 0 19.285-15.634 34.918-34.918 34.918 0 0 0 0-0.001 0zM908.493 244.122h-639.59c-19.285 0-34.918-15.634-34.918-34.918v-32.154c0-19.285 15.634-34.918 34.918-34.918h639.59c19.285 0 34.918 15.634 34.918 34.918v32.154c0 19.285-15.634 34.918-34.918 34.918zM131.686 753.971c-28.277 0-51.2-22.923-51.2-51.2s22.923-51.2 51.2-51.2c28.277 0 51.2 22.923 51.2 51.2s-22.923 51.2-51.2 51.2zM131.686 509.44c-28.277 0-51.2-22.923-51.2-51.2s22.923-51.2 51.2-51.2c28.277 0 51.2 22.923 51.2 51.2s-22.923 51.2-51.2 51.2zM131.686 244.122c-28.277 0-51.2-22.923-51.2-51.2s22.923-51.2 51.2-51.2c28.277 0 51.2 22.923 51.2 51.2s-22.923 51.2-51.2 51.2z" />
<glyph unicode="&#xe968;" glyph-name="fi-list-number" d="M147.763 729.702v-79.36h23.245v109.261h-20.275l-34.406-34.509 13.21-13.926 18.227 18.534zM131.379 484.659c9.011 0 17.715-4.608 17.715-14.234 0-13.414-13.107-24.576-57.856-57.651v-18.33h81.92v20.48h-44.237c28.365 20.48 43.725 36.864 43.725 55.603 0 21.811-18.33 34.918-41.779 34.918-0.368 0.009-0.802 0.014-1.237 0.014-16.122 0-30.645-6.849-40.817-17.797l13.587-15.702c7.17 7.759 17.398 12.6 28.758 12.6 0.222 0 0.443-0.002 0.665-0.006zM149.606 194.662c12.945 1.402 23.058 11.832 23.957 24.799 0.005 18.311-15.765 29.78-40.955 29.78-0.637 0.027-1.383 0.042-2.134 0.042-15.675 0-29.783-6.709-39.61-17.411l11.536-14.58c7.105 6.966 16.846 11.265 27.592 11.265 0.092 0 0.183 0 0.275-0.001 11.25 0 20.466-4.301 20.466-12.902s-8.192-11.674-20.48-11.674c-4.096 0-11.674 0-13.619 0v-20.48c1.638 0 9.011 0 13.619 0 15.258 0 22.016-3.891 22.016-12.595s-7.373-13.926-20.48-13.926c-0.104-0.001-0.228-0.001-0.351-0.001-11.812 0-22.509 4.773-30.268 12.496l-12.286-15.566c10.055-10.83 24.37-17.584 40.263-17.584 1.002 0 1.997 0.027 2.986 0.080 26.077-0.006 42.973 13.306 42.973 32.148-0.563 13.999-11.571 25.256-25.412 26.21zM900.403 756.326h-639.693c-19.285 0-34.918-15.634-34.918-34.918v-32.154c0-19.285 15.634-34.918 34.918-34.918h639.693c19.285 0 34.918 15.634 34.918 34.918v32.154c0 19.285-15.634 34.918-34.918 34.918zM900.403 501.453h-639.693c-19.285 0-34.918-15.634-34.918-34.918v-32.154c0-19.285 15.634-34.918 34.918-34.918h639.693c19.285 0 34.918 15.634 34.918 34.918v32.154c0 19.285-15.634 34.918-34.918 34.918zM900.403 246.579h-639.693c-19.285 0-34.918-15.634-34.918-34.918v-32.154c0-19.285 15.634-34.918 34.918-34.918h639.693c19.285 0 34.918 15.634 34.918 34.918v32.154c0 19.285-15.634 34.918-34.918 34.918z" />
</font>
</defs>
</svg>
